[ Сегодня на трекере фрилич! Идет свободное скачивание без начисления Download ]

Джуно / Juno (Джейсон Райтман / Jason Reitman) [2007 г., драма, мелодрама, комедия, BDRip-AVC, 720p] Dub [МОСФИЛЬМ-мастер 2008]

 

Создавать темы 04-Авг-2016 04:52

-Джуно / Juno-- Производство: США, Dancing Elk Productions, Fox Searchlight Pictures, Mandate Pictures, Mr. Mudd, ...
Год выпуска: 2007 г.
Жанр: драма, мелодрама, комедия
Продолжительность: 01:36:04Мировая премьера: 1 сентября 2007
Дата выхода DVD: 28 февраля 2008, «Пирамида»
Перевод: Профессиональный (полное дублирование) [МОСФИЛЬМ-мастер 2008]
Режиссер: Джейсон Райтман / Jason Reitman-В ролях: Эллен Пейдж, Майкл Сера, Дженнифер Гарнер, Джейсон Бейтман, Эллисон Дженни, Дж.К. Симмонс, Оливия Тирлби, Эйлин Педде, Рэйн Уилсон, Дэниэл Кларк-Описание: Беременная старшеклассница Джуно находит приятную семейную пару, желающую усыновить ее нерожденного ребенка. Перед девушкой встают совсем не детские вопросы: Что делать? Что будет лучше для ее ребенка и как найти себя? Джуно принимает необычное решение…-
Качество видео: BDRip-AVC
Контейнер: MKV
Стандарт разрешения: 720p
Видео кодек: MPEG4 AVC
Аудио кодек: AC3
Видео: AVC/H.264, 1920x1032, ~6004 kbps, 23,976 (24000/1001) fps
Аудио: AC3, 6 ch, 448 kbps, CBR, 48,0 kHz
Cубтитры: отсутствуют

Доп. информация

Телефон в виде гамбургера принадлежит Диабло Коуди, написавшей сценарий.
По предложению самой Эллен Пейдж, Джуно была фанаткой музыки Кимии Доусон и The Moldy Peaches.
Когда Джуно находится в поисках родителей для своего будущего ребенка, она произносит фразу «Им должен же быть кто-то крутой, типа графического дизайнера». В реальной жизни отец Эллен «Джуно» Пейдж и бывший муж сценаристки Диабло Коуди графические дизайнеры.
Если приглядеться, то можно заметить «телефон-гамбургер» на заднем плане и в комнате героя Майкла Серы Бликера.
Перед одной из сцен, когда Джуно приходит к герою Джейсона Бейтмана, он сидит за компьютером и читает реальный блог сценаристки Диабло Коуди.
Это первый фильм компании Fox Searchlight Pictures, в кассовых сборах преодолевший планку в $100 миллионов.
Изначально проект должен был получить название «Junebug», но в итоге от этого варианта пришлось отказаться, чтобы избежать повтора названия фильма 2005 года с Эми Адамс.
Съемочный период: 14 февраля — 27 марта 2007.
Сначала режиссерское кресло должен был занять Брэд Силберлинг, но он покинул проект из-за творческих разногласий.

Награды

Жорж, 2009 год
Номинации (1):
Лучший низкобюджетный/артхаусный фильм
Оскар, 2008 год
Победитель (1):
Лучший сценарий
Номинации (3):
Лучший фильм
Лучшая женская роль (Эллен Пейдж)
Лучший режиссер (Джейсон Райтман)
Золотой глобус, 2008 год
Номинации (3):
Лучший фильм (комедия или мюзикл)
Лучшая женская роль (комедия или мюзикл) (Эллен Пейдж)
Лучший сценарий
Премия канала «MTV», 2008 год
Победитель (1):
Лучшая женская роль ( Эллен Пейдж )
Номинации (3):
Лучший фильм
Лучшая мужская роль (Майкл Сера)
Лучший поцелуй (Майкл Сера, Эллен Пейдж)
Британская академия, 2008 год
Победитель (1):
Лучший оригинальный сценарий
Номинации (1):
Лучшая женская роль (Эллен Пейдж)
Премия Гильдии актеров, 2008 год
Номинации (1):
Лучшая женская роль (Эллен Пейдж)

Рецензия

Смотрите и учитесь!Фильм учит жизни. В 16 лет мало кто задумывается о содеянном, почти никто не думает о будущем и эгоистично пытается взять от жизни всё. В России в таком случае делают аборт. А это неправильно! Так нельзя! За свои поступки каждый должен смело отвечать. И аборт, что бы не случилось, это — не вариант. Поэтому этот фильм надо показывать в школах. И вообще, была бы моя воля, я ввела бы такую жесткую политику борьбы с детоубийством в России, что рождаемость взлетела бы до таджикских масштабов. «Не хочу рожать» — это не причина, «Нет денег» — аналогично, вот отсутствие конечностей у ребенка или генетическая мутация — это да! Если однажды двоим было хорошо, то третий не заслуживает того, чтобы его выскребали по кусочкам!В фильме мы сталкиваемся с умной, не по годам развитой девушкой, в которой из детских проявлений — только страсть к эпатажу. Она любит своего парня и любит их ребенка. Но нужно закончить школу, нужно выбиваться в люди. И она, конечно, могла стать молодой матерью, но они вдвоем (или даже втроем, если бы она приложила кучу усилий, истратила миллионы нервных клеток на то, чтобы бороться с Бликером за выбивание его собственного мнения и с его мамашей) пополнили бы ряды жителей бедных кварталов. А зачем??? Если она может дать ребенку не просто жизнь, а лучшую жизнь? Джуно — гений, вряд ли кому-то пришла бы такая же идея!Поэтому 10 из 10

Media Info

Общее
Уникальный идентификатор : 239571798207420058794105885723881506652 (0xB43BD99996DC0FCBB05D4D181726075C)
Полное имя : E:\Джуно\Juno.2007.BDRip.720p.[pirat.ca].mkv
Формат : Matroska
Версия формата : Version 2
Размер файла : 4,31 Гбайт
Продолжительность : 1 ч. 36 м.
Общий поток : 6430 Кбит/сек
Название фильма : Juno (2007). BDRip
Дата кодирования : UTC 2016-08-03 17:12:12
Программа кодирования : mkvmerge v5.3.0 ('I could have danced') built on Feb 9 2012 10:38:07
Библиотека кодирования : libebml v1.2.3 + libmatroska v1.3.0 / Lavf57.44.100Видео
Идентификатор : 1
Формат : AVC
Формат/Информация : Advanced Video Codec
Профиль формата : [email protected]/* */
Параметр CABAC формата : Да
Параметр ReFrames формата : 5 кадров
Идентификатор кодека : V_MPEG4/ISO/AVC
Продолжительность : 1 ч. 36 м.
Битрейт : 6004 Кбит/сек
Ширина : 1920 пикселей
Высота : 1032 пикселя
Соотношение сторон : 1,85:1
Режим частоты кадров : Постоянный
Частота кадров : 23,976 (24000/1001) кадра/сек
Цветовое пространство : YUV
Субдискретизация насыщенности : 4:2:0
Битовая глубина : 8 бит
Тип развёртки : Прогрессивная
Бит/(Пиксели*Кадры) : 0.126
Размер потока : 3,93 Гбайт (91%)
Библиотека кодирования : x264 core 148 r2643
Настройки программы : cabac=1 / ref=5 / deblock=1:-3:-2 / analyse=0x3:0x113 / me=hex / subme=7 / psy=1 / psy_rd=1.00:0.10 / mixed_ref=0 / me_range=16 / chroma_me=1 / trellis=2 / 8x8dct=1 / cqm=0 / deadzone=21,11 / fast_pskip=1 / chroma_qp_offset=-3 / threads=6 / lookahead_threads=1 / sliced_threads=0 / nr=0 / decimate=1 / interlaced=0 / bluray_compat=0 / constrained_intra=0 / bframes=3 / b_pyramid=0 / b_adapt=2 / b_bias=0 / direct=3 / weightb=0 / open_gop=0 / weightp=2 / keyint=250 / keyint_min=23 / scenecut=40 / intra_refresh=0 / rc_lookahead=50 / rc=2pass / mbtree=1 / bitrate=6004 / ratetol=1.0 / qcomp=0.60 / qpmin=16 / qpmax=69 / qpstep=4 / cplxblur=20.0 / qblur=0.5 / vbv_maxrate=6833 / vbv_bufsize=24000 / nal_hrd=none / filler=0 / ip_ratio=1.40 / aq=3:1.00
Default : Да
Forced : Нет
DURATION : 01:36:04.759000000Аудио
Идентификатор : 2
Формат : AC-3
Формат/Информация : Audio Coding 3
Расширение режима : CM (complete main)
Параметр Endianness формата : Big
Идентификатор кодека : A_AC3
Продолжительность : 1 ч. 36 м.
Вид битрейта : Постоянный
Битрейт : 448 Кбит/сек
Каналы : 6 каналов
Расположение каналов : Front: L C R, Side: L R, LFE
Частота : 48,0 КГц
Частота кадров : 31,250 кадров/сек (1536 spf)
Метод сжатия : С потерями
Размер потока : 308 Мбайт (7%)
Язык : Russian
Default : Да
Forced : Нет
DURATION : 01:36:03.968000000Меню
00:00:00.000 : :Глава 01
00:04:09.747 : :Глава 02
00:06:57.000 : :Глава 03
00:09:07.464 : :Глава 04
00:11:45.870 : :Глава 05
00:14:06.095 : :Глава 06
00:16:35.826 : :Глава 07
00:19:25.538 : :Глава 08
00:22:50.492 : :Глава 09
00:27:00.992 : :Глава 10
00:32:30.905 : :Глава 11
00:37:33.626 : :Глава 12
00:41:28.777 : :Глава 13
00:47:16.041 : :Глава 14
00:49:52.822 : :Глава 15
00:51:52.358 : :Глава 16
00:54:52.414 : :Глава 17
00:56:27.634 : :Глава 18
00:59:45.498 : :Глава 19
01:05:42.605 : :Глава 20
01:10:34.479 : :Глава 21
01:13:30.154 : :Глава 22
01:17:06.037 : :Глава 23
01:20:40.085 : :Глава 24
01:23:42.935 : :Глава 25
01:26:17.546 : :Глава 26
01:29:23.899 : :Глава 27
01:32:19.533 : :Глава 28

Скриншот c названием фильма

Скриншоты

-Трейлер
Яндекс.Метрика
Рейтинг@Mail.ru