Как узнать своих святых / A Guide to Recognizing Your Saints (Дито Монтиель / Dito Montiel) [2006 г., драма, криминал, BDRip-AVC, 720p] DVO

 

Создавать темы 04-Авг-2016 04:48

-Как узнать своих святых / A Guide to Recognizing Your Saints-- Производство: США, Belladonna Productions, Original Media, Xingu Films, ...
Год выпуска: 2006 г.
Жанр: драма, криминал
Продолжительность: 01:39:58Мировая премьера: 3 сентября 2006
Перевод: Профессиональный (двухголосый, закадровый) [R5]
Режиссер: Дито Монтиель / Dito Montiel-В ролях: Дайэнн Уист, Роберт Дауни мл., Шайа ЛаБаф, Мелони Диаз, Джулия Гарро, Элеанор Хендрикс, Адам Скаримболо, Питер Энтони Тамбакис, Ченнинг Татум, Энтони Тирадо-Описание: Герой, выросший в криминальном районе, наблюдает, как его друзья попадают в тюрьму или умирают от наркотиков, попутно пытаясь понять, благодаря кому или чему он сам «выжил в квартале».-
Качество видео: BDRip-AVC
Контейнер: MKV
Стандарт разрешения: 720p
Видео кодек: MPEG4 AVC
Аудио кодек: AC3
Видео: AVC/H.264, 1280x694 (1.85:1), 23.976 fps, 4900 Kbps (0.230 bit/pixel)
Аудио: AC3, 6 ch, 448 kbps, CBR, 48,0 kHz
Cубтитры: отсутствуют

Доп. информация

Дито Монтиель не хотел снимать Шайа ЛаБафа в роли молодого Дито, потому что хотел увидеть в этой роли молодого неизвестного актера. Тем не менее после первой неудачной попытки Шайа ЛаБаф прошел повторный кастинг. Он зашел в офис и пробил кулаком дыру в стене, тем самым убедив Монтиеля, что он может быть достаточно злым для этой роли.

Награды

Венецианский кинофестиваль, 2006 год
Победитель (2):
Премия недели критиков
Премия Isvema
Сандэнс, 2006 год
Победитель (2):
Специальный приз жюри - драма
Премия за режиссуру - драма ( Дито Монтиель )
Номинации (1):
Гран-при - драма

Рецензия

Время задуматьсяФильм привлек своим интересным названьем, заявленной темой и участием Дауни-мл. Сразу скажу Дауни здесь очень мало, но оно так и задумано. Главное показать, как молодой герой взрослел, а не то кем он стал. И в этом же не большой минус. Мы видим, через что прошел парень, но какой он человек сейчас мы не можем понять. Его вынужденное возвращение домой ни о чем не говорит. Он так же спокойно вернется обратно, правда удостоверившись — кто же его святые. Это возвращение — духовное паломничество назад. Надо разобраться в своем прошлом и двигаться дальше. Он узнал о своих святых, но мне так кажется, больше никогда не вернется домой, но уже с внутренней теплотой внутри.Я лежал на диване и сопереживал происходящему. Большую часть я смотрел не в телевизор, а в окно на качающиеся деревья. Все время крутилось названье. Я чувствовал фильм, он заставлял меня задуматься о своей жизни, друзьях, поступках. Хотите узнать кто ваши святые? Что для вас по-настоящем важно? Посмотрите фильм. Это очень хороший способ.10 из 10

Media Info

Общее
Уникальный идентификатор : 197203671894579643882570242895057092944 (0x945C0BB1FA88AD6D97885B3A40F98150)
Полное имя : E:\Как узнать своих святых\Kak uznatj svoih svjatyh.2006.BDRip.720p.[pirat.ca].mkv
Формат : Matroska
Версия формата : Version 2
Размер файла : 3,82 Гбайт
Продолжительность : 1 ч. 39 м.
Общий поток : 5465 Кбит/сек
Дата кодирования : UTC 2016-08-03 17:15:34
Программа кодирования : mkvmerge v5.3.0 ('I could have danced') built on Feb 9 2012 10:38:07
Библиотека кодирования : libebml v1.2.3 + libmatroska v1.3.0Видео
Идентификатор : 1
Формат : AVC
Формат/Информация : Advanced Video Codec
Профиль формата : [email protected]/* */
Параметр CABAC формата : Да
Параметр ReFrames формата : 9 кадров
Идентификатор кодека : V_MPEG4/ISO/AVC
Продолжительность : 1 ч. 39 м.
Битрейт : 4908 Кбит/сек
Ширина : 1280 пикселей
Высота : 694 пикселя
Соотношение сторон : 1,85:1
Режим частоты кадров : Постоянный
Частота кадров : 23,976 (24000/1001) кадра/сек
Цветовое пространство : YUV
Субдискретизация насыщенности : 4:2:0
Битовая глубина : 8 бит
Тип развёртки : Прогрессивная
Бит/(Пиксели*Кадры) : 0.230
Размер потока : 3,43 Гбайт (90%)
Библиотека кодирования : x264 core 146 r2538 121396c
Настройки программы : cabac=1 / ref=9 / deblock=1:-1:-1 / analyse=0x3:0x113 / me=umh / subme=10 / psy=1 / psy_rd=1.00:0.15 / mixed_ref=1 / me_range=32 / chroma_me=1 / trellis=2 / 8x8dct=1 / cqm=0 / deadzone=21,11 / fast_pskip=1 / chroma_qp_offset=-3 / threads=6 / lookahead_threads=1 / sliced_threads=0 / nr=0 / decimate=1 / interlaced=0 / bluray_compat=0 / constrained_intra=0 / bframes=7 / b_pyramid=2 / b_adapt=2 / b_bias=0 / direct=1 / weightb=1 / open_gop=0 / weightp=2 / keyint=230 / keyint_min=23 / scenecut=40 / intra_refresh=0 / rc_lookahead=40 / rc=crf / mbtree=0 / crf=17.9 / qcomp=0.60 / qpmin=0 / qpmax=69 / qpstep=4 / vbv_maxrate=40000 / vbv_bufsize=50000 / crf_max=0.0 / nal_hrd=none / filler=0 / ip_ratio=1.40 / pb_ratio=1.30 / aq=1:1.00
Язык : English
Default : Да
Forced : Нет
Statistics Tags Issue : mkvmerge v8.2.0 ('World of Adventure') 64bit 2016-08-03 03:06:29 / mkvmerge v5.3.0 ('I could have danced') built on Feb 9 2012 10:38:07 2016-08-03 17:15:34
FromStats_BitRate : 5015427
FromStats_Duration : 01:39:58.493000000
FromStats_FrameCount : 143820
FromStats_StreamSize : 3760626108Аудио
Идентификатор : 2
Формат : AC-3
Формат/Информация : Audio Coding 3
Расширение режима : CM (complete main)
Параметр Endianness формата : Big
Идентификатор кодека : A_AC3
Продолжительность : 1 ч. 39 м.
Вид битрейта : Постоянный
Битрейт : 448 Кбит/сек
Каналы : 6 каналов
Расположение каналов : Front: L C R, Side: L R, LFE
Частота : 48,0 КГц
Частота кадров : 31,250 кадров/сек (1536 spf)
Метод сжатия : С потерями
Размер потока : 320 Мбайт (8%)
Заголовок : DVO (R5)
Язык : Russian
Default : Да
Forced : Нет
Statistics Tags Issue : mkvmerge v8.2.0 ('World of Adventure') 64bit 2016-08-03 03:06:29 / mkvmerge v5.3.0 ('I could have danced') built on Feb 9 2012 10:38:07 2016-08-03 17:15:34
FromStats_BitRate : 448000
FromStats_Duration : 01:39:58.528000000
FromStats_FrameCount : 187454
FromStats_StreamSize : 335917568

Скриншот c названием фильма

Скриншоты

-Трейлер
Яндекс.Метрика
Рейтинг@Mail.ru