Всегда / Always (Стивен Спилберг / Steven Spielberg) [1989 г., Драма, BDRip-AVC] AVO (Живов, Гаврилов) + Subs (Rus)

 

Создавать темы 04-Авг-2016 04:45

Всегда / Always
«They couldn't hear him. They couldn't see him. But he was there when they needed him... Even after he was gone»
- Год выпуска: 1989
Мировая премьера: 22 декабря 1989 (США)
Производство: США
Жанр: Фэнтези, Мелодрама, Драма
Продолжительность: 02:02:22
Перевод: Авторский (одноголосый): Юрий Живов + Андрей Гаврилов;
Субтитры: русские (S_TEXT/UTF8)Режиссер: Стивен Спилберг / Steven SpielbergВ ролях: Ричард Дрейфусс / Richard Dreyfuss, Холли Хантер / Holly Hunter, Джон Гудман / John Goodman, Одри Хепберн / Audrey Hepburn, Брэд Джонсон / Brad Johnson, Кит Дэвид / Keith DavidОписание: В 1943 году американский режиссер Виктор Флеминг снял фильм под названием "Парень по имени Джо", в котором рассказывалась трогательная история о духе умершего летчика, стремящегося помочь новичку Джонсону в его карьере и даже в любовных делах. И вот Спилберг делает римейк. Дрейфус играет отчаянно храброго летчика, который погибает, спасая своего приятеля (Гудмэн), а Хантер - его девушку. (Иванов М.)
Качество: BDRip-AVC
Контейнер: MKV
Видео кодек: MPEG-4 AVC / h.264Видео: 1056x572 / 3317 kbps / 23.976 fps / 1,85:1 / High Profile 4.1
Аудио #1: 48 kHz, AC3, 3/2 (L,C,R,l,r) + LFE ch, ~448.00 kbps avg - Живов
Аудио #2: 48 kHz, AC3, 3/2 (L,C,R,l,r) + LFE ch, ~448.00 kbps avg - Гаврилов

h.264 log

avs [info]: 1056x572p 1:1 @ 24000/1001 fps (cfr)
x264 [info]: using SAR=1/1
x264 [info]: using cpu capabilities: MMX2 SSE2Fast SSSE3 SSE4.2 AVX XOP FMA4 FMA3 LZCNT BMI1
x264 [info]: profile High, level 4.1
x264 [info]: cabac=1 ref=12 deblock=1:-3:-3 analyse=0x3:0x113 me=umh subme=11 psy=1 fade_compensate=0.00 psy_rd=1.05:0.20 mixed_ref=1 me_range=32 chroma_me=1 trellis=2 8x8dct=1 cqm=0 deadzone=21,11 fast_pskip=1 chroma_qp_offset=-3 threads=12 lookahead_threads=3 sliced_threads=0 nr=0 decimate=1 interlaced=0 bluray_compat=0 constrained_intra=0 fgo=0 bframes=14 b_pyramid=2 b_adapt=2 b_bias=0 direct=1 weightb=1 open_gop=0 weightp=2 keyint=250 keyint_min=23 scenecut=40 intra_refresh=0 rc_lookahead=40 rc=crf mbtree=0 crf=20.2000 qcomp=0.60 qpmin=0 qpmax=69 qpstep=4 vbv_maxrate=50000 vbv_bufsize=62500 crf_max=0.0 nal_hrd=none filler=0 ip_ratio=1.40 pb_ratio=1.30 aq=3:1.00
x264 [info]: frame I:1001 Avg QP:17.97 size: 75318
x264 [info]: frame P:35698 Avg QP:19.46 size: 32988
x264 [info]: frame B:139346 Avg QP:21.79 size: 12861
x264 [info]: consecutive B-frames: 1.6% 1.9% 5.7% 15.1% 16.6% 46.4% 6.3% 1.9% 1.4% 0.9% 0.6% 0.9% 0.4% 0.2% 0.1%
x264 [info]: mb I I16..4: 10.2% 76.2% 13.6%
x264 [info]: mb P I16..4: 0.6% 15.3% 1.1% P16..4: 31.4% 37.9% 11.9% 0.0% 0.0% skip: 1.8%
x264 [info]: mb B I16..4: 0.0% 1.5% 0.1% B16..8: 43.7% 20.7% 3.0% direct: 5.8% skip:25.1% L0:45.2% L1:45.9% BI: 8.9%
x264 [info]: 8x8 transform intra:89.4% inter:57.5%
x264 [info]: coded y,uvDC,uvAC intra: 97.5% 82.0% 52.1% inter: 31.1% 23.5% 1.2%
x264 [info]: i16 v,h,dc,p: 6% 7% 22% 65%
x264 [info]: i8 v,h,dc,ddl,ddr,vr,hd,vl,hu: 8% 6% 12% 11% 13% 13% 12% 12% 12%
x264 [info]: i4 v,h,dc,ddl,ddr,vr,hd,vl,hu: 11% 6% 3% 10% 16% 17% 13% 13% 12%
x264 [info]: i8c dc,h,v,p: 37% 27% 18% 18%
x264 [info]: Weighted P-Frames: Y:8.8% UV:5.2%
x264 [info]: ref P L0: 38.8% 10.2% 18.5% 7.2% 6.4% 4.5% 4.3% 2.3% 2.2% 1.8% 1.9% 1.7% 0.3% 0.0%
x264 [info]: ref B L0: 66.1% 13.1% 6.9% 3.8% 2.8% 2.4% 1.9% 1.2% 1.0% 0.6% 0.3%
x264 [info]: ref B L1: 91.1% 8.9%
x264 [info]: kb/s:3317.80

Media Info

Формат : Matroska
Версия формата : Version 4 / Version 2
Размер файла : 3,60 Гбайт
Продолжительность : 2 ч. 2 м.
Общий поток : 4216 Кбит/сек
Название фильма : Always.1989.BDRip-AVC.Zhivov.Gavrilov.Subs -=anton966=-
Дата кодирования : UTC 2016-05-08 13:44:15
Программа кодирования : mkvmerge v8.3.0 ('Over the Horizon') 64bit
Библиотека кодирования : libebml v1.3.1 + libmatroska v1.4.2Видео
Идентификатор : 1
Формат : AVC
Формат/Информация : Advanced Video Codec
Профиль формата : [email protected]/* */
Параметр CABAC формата : Да
Параметр ReFrames формата : 12 кадров
Идентификатор кодека : V_MPEG4/ISO/AVC
Продолжительность : 2 ч. 2 м.
Битрейт : 3318 Кбит/сек
Ширина : 1056 пикселей
Высота : 572 пикселя
Соотношение сторон : 1,85:1
Режим частоты кадров : Постоянный
Частота кадров : 23,976 (24000/1001) кадра/сек
Цветовое пространство : YUV
Субдискретизация насыщенности : 4:2:0
Битовая глубина : 8 бит
Тип развёртки : Прогрессивная
Бит/(Пиксели*Кадры) : 0.229
Размер потока : 2,84 Гбайт (79%)
Заголовок : Always.1989.BDRip-AVC
Библиотека кодирования : x264 core 148 r2638kMod 7599210
Настройки программы : cabac=1 / ref=12 / deblock=1:-3:-3 / analyse=0x3:0x113 / me=umh / subme=11 / psy=1 / fade_compensate=0.00 / psy_rd=1.05:0.20 / mixed_ref=1 / me_range=32 / chroma_me=1 / trellis=2 / 8x8dct=1 / cqm=0 / deadzone=21,11 / fast_pskip=1 / chroma_qp_offset=-3 / threads=12 / lookahead_threads=3 / sliced_threads=0 / nr=0 / decimate=1 / interlaced=0 / bluray_compat=0 / constrained_intra=0 / fgo=0 / bframes=14 / b_pyramid=2 / b_adapt=2 / b_bias=0 / direct=1 / weightb=1 / open_gop=0 / weightp=2 / keyint=250 / keyint_min=23 / scenecut=40 / intra_refresh=0 / rc_lookahead=40 / rc=crf / mbtree=0 / crf=20.2000 / qcomp=0.60 / qpmin=0 / qpmax=69 / qpstep=4 / vbv_maxrate=50000 / vbv_bufsize=62500 / crf_max=0.0 / nal_hrd=none / filler=0 / ip_ratio=1.40 / pb_ratio=1.30 / aq=3:1.00
Язык : English
Default : Да
Forced : Нет
Цветовой диапазон : Limited
Основные цвета : BT.709
Характеристики трансфера : BT.709
Коэффициенты матрицы : BT.709Аудио #1
Идентификатор : 2
Формат : AC-3
Формат/Информация : Audio Coding 3
Расширение режима : CM (complete main)
Параметр Endianness формата : Big
Идентификатор кодека : A_AC3
Продолжительность : 2 ч. 2 м.
Вид битрейта : Постоянный
Битрейт : 448 Кбит/сек
Каналы : 6 каналов
Расположение каналов : Front: L C R, Side: L R, LFE
Частота : 48,0 КГц
Частота кадров : 31,250 кадров/сек (1536 spf)
Метод сжатия : С потерями
Размер потока : 392 Мбайт (11%)
Заголовок : Zhivov
Язык : Russian
Default : Да
Forced : НетАудио #2
Идентификатор : 3
Формат : AC-3
Формат/Информация : Audio Coding 3
Расширение режима : CM (complete main)
Параметр Endianness формата : Big
Идентификатор кодека : A_AC3
Продолжительность : 2 ч. 2 м.
Вид битрейта : Постоянный
Битрейт : 448 Кбит/сек
Каналы : 6 каналов
Расположение каналов : Front: L C R, Side: L R, LFE
Частота : 48,0 КГц
Частота кадров : 31,250 кадров/сек (1536 spf)
Метод сжатия : С потерями
Размер потока : 392 Мбайт (11%)
Заголовок : Gavrilov
Язык : Russian
Default : Нет
Forced : НетТекст
Идентификатор : 4
Формат : UTF-8
Идентификатор кодека : S_TEXT/UTF8
Идентификатор кодека/Информация : UTF-8 Plain Text
Продолжительность : 1 ч. 54 м.
Битрейт : 68 бит/сек
Count of elements : 1250
Размер потока : 57,4 Кбайт (0%)
Язык : Russian
Default : Нет
Forced : НетМеню
00:00:00.000 : en:Fire Eaters
00:03:05.643 : en:Dead Stick
00:09:58.222 : en:Girl Clothes
00:21:57.733 : en:Your Number's Up
00:33:21.124 : en:Out of Luck
00:38:36.939 : en:I'm Dead
00:44:35.672 : en:Pete's Project
00:53:58.068 : en:The Reason I'm Here
00:57:55.180 : en:Life Without Pete
01:01:49.664 : en:Pete Gets Through
01:06:38.911 : en:Hello, Dorinda
01:16:24.871 : en:First Impressions
01:20:43.129 : en:Dinner and a Dance
01:34:22.615 : en:To Say Goodbye
01:36:32.244 : en:Firestorm
01:41:59.863 : en:Riding the Storm
01:49:10.043 : en:I'm Releasing You
01:56:21.265 : en:End Titles

Скриншоты

Яндекс.Метрика
Рейтинг@Mail.ru