(Rock)Круиз - 25 и 5 (Лучшие песни) - 2006[Ape, image +.cue, lossless]

 

Создавать темы 03-Авг-2016 10:06

-Круиз - 25 и 5 (Лучшие песни)--
Год издания: 2006
Страна: Russia
Жанр: Rock
Продолжительность: 00:53:41-Лейбл издания: Miстерия звука
Страна-выпуска диска: Ukraina
Номер по каталогу: MR 2112-2-Формат: Ape
Битрейт аудио: Lossless
Тип рипа: image +.cue
Наличие сканов в содержимом раздачи: да
-

Трэклист


01. Виза для Круиза (6:19)
02. Красота (3:34)
03. Послушай человек (3:53)
04. Не позволяй душе лениться (6:10)
05. Не верьте тишине (4:20)
06. Стремления (5:20)
07. Как скучно жить без светлой сказки (2:38)
08. Что поделаешь работа (5:26)
09. Крутится Волчок (3:26)
10. Музыка Невы (5:15)
11. Роман с ... (4:14)
12. Новогодняя ночь (3:04)
-

Лог создания рипа

Отчёт EAC об извлечении, выполненном 11. мая 2008, 22:16 для диска:
Круиз / 25 и 5
Дисковод: HL-DT-STDVDRAM GSA-T10N   Adapter: 0  ID: 0
Режим чтения: Достоверный (C2: нет, Точный поток: да, Отключение кэша: да)
Коррекция смещения при чтении: 667
Способность читать области Lead-in и Lead-out : Нет
Выходной формат: Внутренние WAV-операции
                     44.100 Гц; 16 бит; стерео
Другие параметры:
    Заполнение пропущенных сэмплов тишиной : Да
    Удаление блоков с тишиной в начале и конце : Нет
    Встроенный Win32-интерфейс для Win NT/2000
Характеристики диапазона извлечения и сообщения об ошибках
Выбранный диапазон
     Имя файла G:\временное\Круиз - 25 и 5.wav
     Пиковый уровень 98.9 %
     Качество диапазона 100.0 %
     CRC 42129D35
     Копирование... OK
Ошибок не произошло
Конец отчёта

Индексная карта (non-compilant .cue)

REM GENRE Rock
REM DATE 2006
REM DISCID C80C940C
REM COMMENT "ExactAudioCopy v0.95b4"
PERFORMER "Круиз"
TITLE "25 и 5"
FILE "Круиз - 25 и 5.ape" WAVE
  TRACK 01 AUDIO
    TITLE "Виза для Круиза"
    PERFORMER "Круиз"
    INDEX 01 00:00:00
  TRACK 02 AUDIO
    TITLE "Красота"
    PERFORMER "Круиз"
    INDEX 01 06:19:00
  TRACK 03 AUDIO
    TITLE "Послушай человек"
    PERFORMER "Круиз"
    INDEX 01 09:53:00
  TRACK 04 AUDIO
    TITLE "Не позволяй душе лениться"
    PERFORMER "Круиз"
    INDEX 01 13:46:37
  TRACK 05 AUDIO
    TITLE "Не верьте тишине"
    PERFORMER "Круиз"
    INDEX 01 19:56:74
  TRACK 06 AUDIO
    TITLE "Стремления"
    PERFORMER "Круиз"
    INDEX 01 24:16:74
  TRACK 07 AUDIO
    TITLE "Как скучно жить без светлой сказки"
    PERFORMER "Круиз"
    INDEX 01 29:36:74
  TRACK 08 AUDIO
    TITLE "Что поделаешь работа"
    PERFORMER "Круиз"
    INDEX 01 32:15:36
  TRACK 09 AUDIO
    TITLE "Крутится Волчок"
    PERFORMER "Круиз"
    INDEX 01 37:41:36
  TRACK 10 AUDIO
    TITLE "Музыка Невы"
    PERFORMER "Круиз"
    INDEX 00 41:05:36
    INDEX 01 41:07:36
  TRACK 11 AUDIO
    TITLE "Роман с ..."
    PERFORMER "Круиз"
    INDEX 00 46:20:36
    INDEX 01 46:22:36
  TRACK 12 AUDIO
    TITLE "Новогодняя ночь"
    PERFORMER "Круиз"
    INDEX 00 50:34:44
    INDEX 01 50:36:44

Folder.auCDtect

-----------------------
DON'T MODIFY THIS FILE
-----------------------
PERFORMER: auCDtect Task Manager, ver. 1.6.0 RC1 build 1.6.0.1
Copyright (c) 2008-2010 y-soft. All rights reserved
http://y-soft.org
ANALYZER: auCDtect: CD records authenticity detector, version 0.8.2
Copyright (c) 2004 Oleg Berngardt. All rights reserved.
Copyright (c) 2004 Alexander Djourik. All rights reserved.
FILE: Круиз - 25 и 5.ape
  Size: 393176580 Hash: 756C7CE3BB07B0ABE015E2481F446E63 Accuracy: -m0
  Conclusion: CDDA 100%
  Signature: 06780167F7A56904069F5560396D4A2B2DD66953
--
Яндекс.Метрика
Рейтинг@Mail.ru