Ани Лорак - 20 лет на сцене / Ані Лорак - 20 років на сцені / (Эфир 01.01.2014) [2013, Pop, SATRip]

 

Создавать темы 02-Янв-2014 12:53

Ани Лорак - 20 лет на сцене / Ані Лорак - 20 років на сцені
Год: 2013
Жанр: Pop
Выпущено: Украина, Интер
Продолжительность: ~ 02:06:45-Описание: Грандиозный концерт звезды украинской сцены Ани Лорак. Певица отметила 20-летие своей творческой карьеры, как и положено, на сцене.
Любимые хиты, неожиданные аранжировки и, конечно же, неповторимый, чарующий голос Ани Лорак. Каждая песня программы - отдельный номер, где участвует балет, где меняются яркие костюмы, где певица исполняет цирковые трюки.
В оформлении сцены были задействованы самые современные технологии, новейшие спецэффекты, огромные экраны и масштабные декорации, что сделало шоу действительно незабываемым!
Не обошлось и без прекрасных творческих тандемов и музыкальных импровизаций. В концерте приняли участие известные артисты - близкие друзья певицы: Филипп Киркоров, Валерий Меладзе, Сергей Лазарев и Тимур Родригез. В честь памяти своего земляка Владимира Ивасюка, вместе с группой "ManSound" Ани исполнила микс из песен легендарного композитора.-Качество: SATRip (Исходник DVB)
Энкод: SOFCJ
Формат: AVI
Видео: Xvid 720x400 25fps 2489kbps
Аудио: MP3 48000Hz stereo 192kbps

Скриншоты

Трэклист

01. Птица
02. Обними меня
03. Зажигай Сердце
04. Спроси
05. Валерий Меладзе ft. Ани Лорак - Верни мою любовь
06. Не дели любовь
07. Искала
08. Солнце
09. Киркоров Филипп и Лорак Ани - Гимн уходящим мечтам
10. С Первого Взлгяда
11. Ани Лорак и Тимур Родригез - Увлечение
12. Для Тебя
13. Три звичних слова
14. Без тебе
15. Сергей Лазерев и Ани Лорак - Я не сдамся без бою
16. Запроси мене у сни
17. Заснули мальви
18. Кленовий вогонь
19. Там, де ти є
20. Зеркала (как озёра голубой воды)
21. Shady lady
22. Зеркала
23. Оранжевые сны
24. Обними меня крепче
25. Забирай рай
26. Я С Тобой
27. It's my life
28. Я вернусь
29. Песенный микс

MediaInfo

Формат : AVIФормат/Информация : Audio Video InterleaveРазмер файла : 2,38 ГбайтПродолжительность : 2 ч. 6 м.Общий поток : 2693 Кбит/сек
ВидеоИдентификатор : 0Формат : MPEG-4 VisualПрофиль формата : Advanced [email protected] BVOP формата : 2Параметр QPel формата : НетПараметр GMC формата : Без точки переходаПараметр матрицы формата : Default (MPEG)Идентификатор кодека : XVIDИдентификатор кодека/Подсказка : XviDПродолжительность : 2 ч. 6 м.Битрейт : 2489 Кбит/секШирина : 720 пикселейВысота : 400 пикселейСоотношение сторон : 16:9Частота кадров : 25,000 кадров/секЦветовое пространство : YUVСубдискретизация насыщенности : 4:2:0Битовая глубина : 8 битТип развёртки : ПрогрессивнаяМетод сжатия : С потерямиБит/(Пиксели*Кадры) : 0.346Размер потока : 2,20 Гбайт (92%)Библиотека кодирования : XviD 73
АудиоИдентификатор : 1Формат : MPEG AudioВерсия формата : Version 1Профиль формата : Layer 3Идентификатор кодека : 55Идентификатор кодека/Подсказка : MP3Продолжительность : 2 ч. 6 м.Вид битрейта : ПостоянныйБитрейт : 192 Кбит/секКаналы : 2 каналаЧастота : 48,0 КГцМетод сжатия : С потерямиРазмер потока : 174 Мбайт (7%)Выравнивание : Соединение по промежуткамПродолжительность промежутка : 40 мс. (1,00 видеокадр)Время предзагрузки промежутка : 504 мс.Библиотека кодирования : LAME3.99rНастройки программы : -m s -V 4 -q 0 -lowpass 18.6 -b 192
Яндекс.Метрика
Рейтинг@Mail.ru