Сборник клипов - Uplifting Trance. Trance Emotion 11 (2015-16) WEBRip 720p, 1080p | 60 fps

 

Создавать темы 01-Авг-2016 20:34

Название: Uplifting Trance - Trance Emotion 11
Исполнитель: VA
Год: 2016
Жанр: Trance, Vocal Trance, Uplifting Trance
Страна: Россия, США, Турция
Продолжительность: 09:17:25
Формат/Кодек: MPEG-4 720p - 1080p 60 FPS
Битрейт аудио: AAC ~192 Кбит/сек, 2 канала(ов), 44,0 КГц

Трек-лист

01. Frainbreeze & Lucid Blue – Light My Way (Original Mix).mp4
02. Assaf – Vela (Extended Mix)
03. Colonial One & Andrea Mazza feat. Danny Claire - Ask Me Why (Original Mix)
04. Robert Costin - Morning Glory (Original Mix)[Promo]
05. Aurosonic & Sarah Lynn & Yana Chernysheva - This Imaginary Love (Original Mix)
06. Talla 2XLC & Jilliana Danise - What Could Be Better (Original Mix)
07. Denis Kenzo & Alexandra Badoi - More Time (Original Mix)
08. Allen & Envy with Cari – Promises (Original Mix)
09. Alikast - Prometheus (Original Mix)[Promo]
10. Outside the Bounds - Morena (Original Mix)[Promo]
11. Craig Connelly Feat. Tricia McTeague & Rory O Grady - Meet At the End (Original Mix)
12. Aley & Oshay feat. Angel Falls - I Found My Way (Original Mix)[Promo]
13. Etasonic – Downhill (Original Mix) [Promo]
14. Aurosonic & Denis Karpinskiy & Kate Louise Smith - They Wait For Us (Progressive Mix)
15. Phil Dinner - Suncatcher (Cosmic Heaven Remix)
16. STA - Rising Sun (Original Mix)[Promo]
17. Audrey Gallagher & ReOrder – Your Own Way (Original Mix)
18. Alex Ryan – Visions (Original Mix)[Promo]
19. Leenoox – Time Flow (Original Mix) [Promo]
20. Carl Daylim feat. Rebecca Louise Burch – Running To Nothing (Quillava Remix)[Promo]
21. Phil Dinner – Come On (Original Mix) [Promo]
22. Paul Denton - Searching The Sky (Original Mix)
23. Roman Messer Feat. Emma Lock - Lights (Matt Bukovski Remix)
24. Mhammed El Alami & Abdelrahman Nabil Feat. Allam – Oceanus (Original Mix)[Promo]
25. Luke Bond vs. CARTEL – Once More (Dan Stone Remix) [Promo]
26. Arman Dinarvand & Bager - Hope (Astuni Re-Lift)
27. Beat Service & Sarah Russell - Would You (Original Mix)
28. Stargazers & Cynthia Hall - Scattered Pieces (Original Mix)
29. Mike Sanders – No Way Out (Nikolauss #140 Remix) [Promo]
30. Trance Arts Feat Carie – I ve Seen The World (Original Mix)
31. Headstrong Feat. Stine Grove – I Wont Fall (Reorder Club Mix) dPromod
32. A & Z With Leolani - Fleeting Moments (Original Mix)
33. Kaimo K & Sarah Russell - Love Will Never Leave (Original Mix)
34. Beat Service & Sarah Lynn – Dream Weaver (Original Mix)
35. Dan Thompson & Mino Safy – A New Leaf (Original Mix)
36. Beat Service & Ana Criado - An Autumn Tale (Kaimo K Remix)
37. Darren Porter – Deep Blue (Original Mix)
38. Temple One, Sarah Lynn - Show Me The Stars (Original Mix)
39. Assaf & Laura Aqui – After Dark (Original Mix) dPromod
40. Mart Sine Feat. Angel Falls - Why Now (Original Mix)
41. Damian Sulewski Ft. Alicja Mroz - Find The Way.
42. Re Locate vs. Robert Nickson & Sarah Lynn - Will You Be There (Factoria Remix)
43. Beat Service & Cathy Burton - Love Is Your Home (Original Mix)
44. Dreamy & Maratone feat. Danny Claire – You (Original Mix)
45. Cj Stereogun, Margo Fly – Renaissance (Original Mix) dPromod
46. Paul Rigel - Good Morning (Mhammed El Alami Remix)dPromod
47. Re Locate Vs. Robert Nickson & Cate Kanell - Brave (Original Mix)
48. Michael Retouch - Point Of No Return (Original Mix)
49. Nikolauss & Valexki – Shakti (Original Mix)
50. Philippe EL Sisi & Sarah Russel - Into The Flame (Original Mix)
51. C-Systems & Hanna Finsen - Where Do I Belong (Original Mix) - YouTube
52. Andres Sanchez – Don t Leave (Original Mix)
53. Feel & Sarah Shields - Hero (Mhammed El Alami Remix)
54. Aurosonic & Frainbreeze with Sarah Russell - Tell Me Anything (Original)
55. LTN & Eranga feat. Katty Heath - Don t Push Me Back (LTN Mix)
56. Kaimo K, Cold Rush & Sarah Russell - Angel Fly (Original Mix)
57. Denis Kenzo & Sarah Lynn – Ashes (Original Mix)
58. Matt Bukovski, Cynthia Hall – Slave To Doubt (Original Mix)
59. Andy Moor & Somna ft. Amy Kirkpatrick - One Thing About You (Chris Metcalfe Remix)
60. Shaun Greggan – Lost Love (Tycoos Remix) dpromod
61. Allen & Envy and Jo Cartwright – Without It (Original Mix) dPromod
62. Alexey Ryasnyansky & Flatlex – Sunrise (Stephane Badey Sunset mix)
63. Talla 2xlc & RAM feat. Kim Kiona - Until the End (Original Mix) dPromod
64. Alexandre Bergheau & Geert Huinink - Desert Wings (Original Mix)
65. Dreamy - Mimi (Original Banging Mix)
66. Baseman – Climb To The Heavens (Phil Dinner Remix)
67. C-Systems & Marcel Kennenberg – Ultraviolet (Original Mix)
68. Ron Hagen & A.R.D.I. and Sarah Lynn - Gold In The Sky (Signum Remix)
69. Denis Kenzo & Kimberly Hale – Find The Light (Original Mix)
70. Temple One & Katty Heath – Together We Escape (Original Mix)
71. Abandoned Rainbow - I ll Miss The Wind (Original Mix)
73. Sou Kanai u0026 Danny Claire – Completely (Original Mix)
74. Tenishia & Ruben De Ronde Ft. Shannon Hurley - Love Survives (Ellez Ria Remix)
75. Kheiro & Medi – Reanimation (Original Mix)
76. Airscape – Manami s Theme (Stereojackers vs Mark Loverush Remix)
77. C-Project - Angel Of The South (Ilya ViG Remix)
78. Mike Shiver, Shannon Hurley - A Little Rain (Allen & Envy Remix)
79. Phil Dinner feat. Danny Claire - Where Have You Gone (Original Mix)
80. Dart Rayne & Yura Moonlight Feat. Cathy Burton - Incomplete (Original Mix)
81. Farzam Feat. Sam Vince - Perfection (Hypaethrame Remix)
82. Emanuele Braveri feat Hanna Finsen - Run Baby (Dave Cold Remix)
83. John O Callaghan, Jennifer Rene - Games (Standerwick Remix)
84. Tranzlift - Neverending Love (Diverted 100 Anthem) (Original Mix)
85. IRA & Paulina Dubaj - Better In Time (Cold Rush Remix)

Mediainfo:

Общее
Полное имя                               : C:UsersEvgeniyVideosUplifting Trance Trance Emotion 11 (2016) 720p 1080p 60 fps DJFenix1. Frainbreeze & Lucid Blue – Light My Way (Original Mix).mp4
Формат                                   : MPEG-4
Профиль формата                          : Base Media
Идентификатор кодека                     : isom (isom/iso2/avc1/mp41)
Размер файла                             : 69,5 Мбайт
Продолжительность                        : 5 м. 42 с.
Общий поток                              : 1702 Кбит/сек
Программа кодирования                    : Lavf56.40.101
Видео
Идентификатор                            : 1
Формат                                   : AVC
Формат/Информация                        : Advanced Video Codec
Профиль формата                          : [email protected]
Параметр CABAC формата                   : Да
Параметр ReFrames формата                : 3 кадра
Идентификатор кодека                     : avc1
Идентификатор кодека/Информация          : Advanced Video Coding
Продолжительность                        : 5 м. 42 с.
Duration_FirstFrame                      : -40 мс.
Битрейт                                  : 1570 Кбит/сек
Ширина                                   : 1280 пикселей
Высота                                   : 720 пикселей
Соотношение сторон                       : 16:9
Режим частоты кадров                     : Переменный
Частота кадров                           : 25,000 кадров/сек
Минимальная частота кадров               : 25,000 кадров/сек
Максимальная частота кадров              : 25,014 кадров/сек
Цветовое пространство                    : YUV
Субдискретизация насыщенности            : 4:2:0
Битовая глубина                          : 8 бит
Тип развёртки                            : Прогрессивная
Бит/(Пиксели*Кадры)                      : 0.068
Размер потока                            : 64,2 Мбайт (92%)
Цветовой диапазон                        : Limited
Основные цвета                           : BT.709
Характеристики трансфера                 : BT.709
Коэффициенты матрицы                     : BT.709
Аудио
Идентификатор                            : 2
Формат                                   : AAC
Формат/Информация                        : Advanced Audio Codec
Профиль формата                          : LC
Идентификатор кодека                     : 40
Продолжительность                        : 5 м. 42 с.
Вид битрейта                             : Постоянный
Битрейт                                  : 126 Кбит/сек
Каналы                                   : 2 канала
Расположение каналов                     : Front: L R
Частота                                  : 44,1 КГц
Частота кадров                           : 43,066 кадра/сек (1024 spf)
Метод сжатия                             : С потерями
Размер потока                            : 5,13 Мбайт (7%)
Default                                  : Да
Alternate group                          : 1
Общее
Полное имя                               : C:UsersEvgeniyVideosUplifting Trance Trance Emotion 11 (2016) 720p 1080p 60 fps DJFenix81. Farzam Feat. Sam Vince - Perfection (Hypaethrame Remix).mp4
Формат                                   : MPEG-4
Профиль формата                          : Base Media
Идентификатор кодека                     : isom (isom/iso2/avc1/mp41)
Размер файла                             : 70,7 Мбайт
Продолжительность                        : 8 м. 24 с.
Общий поток                              : 1174 Кбит/сек
Программа кодирования                    : Lavf56.40.101
Видео
Идентификатор                            : 1
Формат                                   : AVC
Формат/Информация                        : Advanced Video Codec
Профиль формата                          : [email protected]
Параметр CABAC формата                   : Да
Параметр ReFrames формата                : 3 кадра
Идентификатор кодека                     : avc1
Идентификатор кодека/Информация          : Advanced Video Coding
Продолжительность                        : 8 м. 24 с.
Duration_FirstFrame                      : -40 мс.
Битрейт                                  : 1043 Кбит/сек
Ширина                                   : 1280 пикселей
Высота                                   : 720 пикселей
Соотношение сторон                       : 16:9
Режим частоты кадров                     : Переменный
Частота кадров                           : 25,000 кадров/сек
Минимальная частота кадров               : 25,000 кадров/сек
Максимальная частота кадров              : 25,014 кадров/сек
Цветовое пространство                    : YUV
Субдискретизация насыщенности            : 4:2:0
Битовая глубина                          : 8 бит
Тип развёртки                            : Прогрессивная
Бит/(Пиксели*Кадры)                      : 0.045
Размер потока                            : 62,7 Мбайт (89%)
Аудио
Идентификатор                            : 2
Формат                                   : AAC
Формат/Информация                        : Advanced Audio Codec
Профиль формата                          : LC
Идентификатор кодека                     : 40
Продолжительность                        : 8 м. 24 с.
Вид битрейта                             : Постоянный
Битрейт                                  : 126 Кбит/сек
Каналы                                   : 2 канала
Расположение каналов                     : Front: L R
Частота                                  : 44,1 КГц
Частота кадров                           : 43,066 кадра/сек (1024 spf)
Метод сжатия                             : С потерями
Размер потока                            : 7,56 Мбайт (11%)
Default                                  : Да
Alternate group                          : 1
Общее
Полное имя                               : C:UsersEvgeniyVideosUplifting Trance Trance Emotion 11 (2016) 720p 1080p 60 fps DJFenixScott Bond vs. Adam White–Exodus (Adam White Remix).mp4
Формат                                   : MPEG-4
Профиль формата                          : Base Media
Идентификатор кодека                     : isom (isom/iso2/avc1/mp41)
Размер файла                             : 29,3 Мбайт
Продолжительность                        : 4 м. 8 с.
Общий поток                              : 988 Кбит/сек
Программа кодирования                    : Lavf56.40.101
Видео
Идентификатор                            : 1
Формат                                   : AVC
Формат/Информация                        : Advanced Video Codec
Профиль формата                          : [email protected]
Параметр CABAC формата                   : Да
Параметр ReFrames формата                : 3 кадра
Идентификатор кодека                     : avc1
Идентификатор кодека/Информация          : Advanced Video Coding
Продолжительность                        : 4 м. 8 с.
Duration_FirstFrame                      : -40 мс.
Битрейт                                  : 856 Кбит/сек
Ширина                                   : 1280 пикселей
Высота                                   : 720 пикселей
Соотношение сторон                       : 16:9
Режим частоты кадров                     : Переменный
Частота кадров                           : 25,000 кадров/сек
Минимальная частота кадров               : 25,000 кадров/сек
Максимальная частота кадров              : 25,014 кадров/сек
Цветовое пространство                    : YUV
Субдискретизация насыщенности            : 4:2:0
Битовая глубина                          : 8 бит
Тип развёртки                            : Прогрессивная
Бит/(Пиксели*Кадры)                      : 0.037
Размер потока                            : 25,4 Мбайт (87%)
Цветовой диапазон                        : Limited
Основные цвета                           : BT.709
Характеристики трансфера                 : BT.709
Коэффициенты матрицы                     : BT.709
Аудио
Идентификатор                            : 2
Формат                                   : AAC
Формат/Информация                        : Advanced Audio Codec
Профиль формата                          : LC
Идентификатор кодека                     : 40
Продолжительность                        : 4 м. 8 с.
Вид битрейта                             : Постоянный
Битрейт                                  : 126 Кбит/сек
Каналы                                   : 2 канала
Расположение каналов                     : Front: L R
Частота                                  : 44,1 КГц
Частота кадров                           : 43,066 кадра/сек (1024 spf)
Метод сжатия                             : С потерями
Размер потока                            : 3,73 Мбайт (13%)
Default                                  : Да
Alternate group                          : 1

Скриншоты

Релиз от: DJFenixTrance & Trance Universe
Яндекс.Метрика
Рейтинг@Mail.ru