[ Сегодня на трекере фрилич! Идет свободное скачивание без начисления Download ]

Deftones - Gore (2016) [FLAC|Lossless|image + .cue] <Alternative>

 

Создавать темы 01-Авг-2016 10:28

- Deftones - Gore (2016) - Год: 2016
Жанр: Alternative
Продолжительность: 0:48:13
Кодек: FLAC
Битрейт: Lossless
Тип рипа: image + .cue
Треклист:
01. Prayers Triangles [03:37]
02. Acid Hologram [04:05]
03. Doomed User [04:26]
04. Geometric Headdress [03:29]
05. Hearts Wires [05:20]
06. Pittura Infamante [04:03]
07. Xenon [03:17]
08. (L)Mirl [05:02]
09. Gore [04:59]
10. Phantom Bride [04:53]
11. Rubicon [04:57]

Отчёт EAC&#58;

Exact Audio Copy V1.1 from 23. June 2015
Отчёт EAC об извлечении, выполненном 23. апреля 2016, 17:54
Deftones / Gore
Дисковод: ASUS    BW-12B1ST   Adapter: 1  ID: 0
Режим чтения                 : Достоверность
Использование точного потока : Да
Отключение кэша аудио        : Да
Использование указателей C2  : Нет
Коррекция смещения при чтении                     : 6
Способность читать области Lead-in и Lead-out     : Нет
Заполнение пропущенных сэмплов тишиной            : Да
Удаление блоков с тишиной в начале и конце        : Нет
При вычислениях CRC использовались нулевые сэмплы : Да
Интерфейс                                         : Встроенный Win32-интерфейс для Win NT/2000
Выходной формат : Внутренние WAV-операции
Формат сэмплов  : 44.100 Гц; 16 бит; стерео
TOC извлечённого CD
Трек |   Старт  | Длительность | Начальный сектор | Конечный сектор
---------------------------------------------------------------------
1  |  0:00.00 |    3:37.69   |           0      |      16343
2  |  3:37.69 |    4:05.62   |       16344      |      34780
3  |  7:43.56 |    4:26.65   |       34781      |      54795
4  | 12:10.46 |    3:29.04   |       54796      |      70474
5  | 15:39.50 |    5:20.41   |       70475      |      94515
6  | 21:00.16 |    4:03.45   |       94516      |     112785
7  | 25:03.61 |    3:17.12   |      112786      |     127572
8  | 28:20.73 |    5:02.31   |      127573      |     150253
9  | 33:23.29 |    4:59.12   |      150254      |     172690
10  | 38:22.41 |    4:53.04   |      172691      |     194669
11  | 43:15.45 |    4:57.63   |      194670      |     217007
Характеристики диапазона извлечения и сообщения об ошибках
Выбранный диапазон
Имя файла D:\EAC\Deftones ‎- 2016 - Gore (Reprise Records ‎- WPCR-17145)\Deftones - 2016 - Gore.wav
Пиковый уровень 100.0 %
Скорость извлечения 6.8 X
Качество диапазона 100.0 %
CRC теста CBFBF080
CRC копии CBFBF080
Копирование... OK
Ошибок не произошло
AccurateRip: сводка
Трек  1  : извлечено точно (доверие 6)  [4207C2CB]  (AR v2)
Трек  2  : извлечено точно (доверие 6)  [E27E2D4A]  (AR v2)
Трек  3  : извлечено точно (доверие 6)  [AEDC56A6]  (AR v2)
Трек  4  : извлечено точно (доверие 6)  [420C9F93]  (AR v2)
Трек  5  : извлечено точно (доверие 6)  [261F4BBE]  (AR v2)
Трек  6  : извлечено точно (доверие 6)  [B72DB075]  (AR v2)
Трек  7  : извлечено точно (доверие 6)  [B8BAFD4C]  (AR v2)
Трек  8  : извлечено точно (доверие 6)  [20000637]  (AR v2)
Трек  9  : извлечено точно (доверие 6)  [1E0053C5]  (AR v2)
Трек 10  : извлечено точно (доверие 6)  [8360D059]  (AR v2)
Трек 11  : извлечено точно (доверие 6)  [21BEF5D3]  (AR v2)
Все треки извлечены точно
Конец отчёта
---- CUETools DB Plugin V2.1.6
[CTDB TOCID: K1kQJ3E1LY0Z86wLl8prhqcndOM-] found
Submit result: K1kQJ3E1LY0Z86wLl8prhqcndOM- has been confirmed
Track | CTDB Status
1   | (135/135) Accurately ripped
2   | (135/135) Accurately ripped
3   | (135/135) Accurately ripped
4   | (135/135) Accurately ripped
5   | (135/135) Accurately ripped
6   | (135/135) Accurately ripped
7   | (135/135) Accurately ripped
8   | (135/135) Accurately ripped
9   | (135/135) Accurately ripped
10   | (135/135) Accurately ripped
11   | (135/135) Accurately ripped
==== Контрольная сумма отчёта 867FE34EE0CD6BFB15A53B062E04D07DDB720CB68ABAA5E11796736502BE0BB3 ====

Cue Sheet (.cue&#41;&#58;

REM GENRE Alternative
REM DATE 2016
REM DISCID 7E0B4D0B
REM COMMENT "ExactAudioCopy v1.1"
CATALOG 4943674230051
PERFORMER "Deftones"
TITLE "Gore"
FILE "Deftones - 2016 - Gore.flac" WAVE
TRACK 01 AUDIO
TITLE "Prayers/Triangles"
PERFORMER "Deftones"
ISRC USRE11500601
INDEX 01 00:00:00
TRACK 02 AUDIO
TITLE "Acid Hologram"
PERFORMER "Deftones"
ISRC USRE11500602
INDEX 01 03:37:69
TRACK 03 AUDIO
TITLE "Doomed User"
PERFORMER "Deftones"
ISRC USRE11500603
INDEX 01 07:43:56
TRACK 04 AUDIO
TITLE "Geometric Headdress"
PERFORMER "Deftones"
ISRC USRE11500604
INDEX 01 12:10:46
TRACK 05 AUDIO
TITLE "Hearts/Wires"
PERFORMER "Deftones"
ISRC USRE11500605
INDEX 01 15:39:50
TRACK 06 AUDIO
TITLE "Pittura infamante"
PERFORMER "Deftones"
ISRC USRE11500606
INDEX 01 21:00:16
TRACK 07 AUDIO
TITLE "Xenon"
PERFORMER "Deftones"
ISRC USRE11500607
INDEX 01 25:03:61
TRACK 08 AUDIO
TITLE "(L)MIRL"
PERFORMER "Deftones"
ISRC USRE11500608
INDEX 01 28:20:73
TRACK 09 AUDIO
TITLE "Gore"
PERFORMER "Deftones"
ISRC USRE11500609
INDEX 01 33:23:29
TRACK 10 AUDIO
TITLE "Phantom Bride"
PERFORMER "Deftones"
ISRC USRE11500610
INDEX 01 38:22:41
TRACK 11 AUDIO
TITLE "Rubicon"
PERFORMER "Deftones"
ISRC USRE11500611
INDEX 01 43:15:45

Отчёт auCDtect Task manager&#58;

-----------------------
DON'T MODIFY THIS FILE
-----------------------
PERFORMER: auCDtect Task Manager, ver. 1.6.0 RC1 build 1.6.0.1
Copyright (c) 2008-2010 y-soft. All rights reserved
http://y-soft.org
ANALYZER: auCDtect: CD records authenticity detector, version 0.8.2
Copyright (c) 2004 Oleg Berngardt. All rights reserved.
Copyright (c) 2004 Alexander Djourik. All rights reserved.
FILE: Deftones - 2016 - Gore.flac
Size: 359462959 Hash: 8067152E40CB34FF043FB536F0EF96D6 Accuracy: -m0
Conclusion: CDDA 100%
Signature: 8EA2EFB95D9589DE9A1A794ECDA5BB5A49782292
Яндекс.Метрика
Рейтинг@Mail.ru