Форсаж / The Fast and the Furious [Роб Коэн] (2001 / Боевик, триллер, криминал / BDRip 720p от DHT-Movies)

 

Создавать темы 02-Янв-2014 10:03

Название: Форсаж
Оригинальное название: The Fast and the Furious
Год выхода: 2001
Жанр: Боевик, триллер, криминал
Режиссер: Роб Коэн--В ролях:
Пол Уокер, Вин Дизель, Мишель Родригес, Джордана Брюстер, Рик Юн, Чад Линдберг, Джонни Стронг, Мэтт Шульце, Тед Левайн, Джа Рул, Вито Руджинис, Том Бэрри, Стэнтон Рутледж, Ноэль Гульеми, Р.Дж. Де Вера, Бо Холден, Регги Ли, Дэвид Дуглас, Питер Нэви Туясосопо, Нил Х. Мориц, Дория Ансельмо, Гленн К. Ота, Майк Уайт, Дэлфин Пасифик, Моника Тамайо, Меган Бэйкер, Тэмми Моника Гегамиан
Описание:
Его зовут Брайан, и он — фанатик турбин и нитроускорителей. Его цель — быть принятым в автобанду легендарного Доминика Торетто, чемпиона опасных и незаконных уличных гонок. Но это лишь часть правды… Брайан также полицейский, имеющий задание войти в доверие к Торетто, подозреваемому в причастности к дерзким грабежам трейлеров, совершенным прямо «с колес». Но чем больше доверяет нахальному новичку харизматичный Доминик, тем больше проникается герой идеалами «ангелов дорог». И тем меньше ему хочется выполнять свою миссию. И вот, наступает момент, когда Брайану придется выбирать между дружбой и долгом. И выбирать на скорости в 200 километров в час…-Страна: США, Германия
Продолжительность: 01:46:51
Перевод: Дубляж (Профессиональный) [Лицензия] + Оригинал (Английский)
Субтитры: Русские / Английские UTF-8 (full)
Качество: BDRip 720p | Blu-Ray Remux (1080p)
Формат: MKV
Видео кодек: H.264
Видео: 1280 x 544 (2,35:1), 23,976 fps, AVC (х264) [email protected], ~ 4700 Kbps, 0.282 bit/pixel
Аудио (Русский): 48 kHz, AC3 Dolby Digital, 3/2 (L,C,R,l,r) + LFE ch, ~ 448 kbps avg | (Дубляж)
Аудио (Английский): 48 kHz, AC3 Dolby Digital, 3/2 (L,C,R,l,r) + LFE ch, ~ 448 kbps avg | (Оригинал)-

log x264 / MI

avs [info]: 1280x544p 1:1 @ 2500000/104271 fps (cfr)
x264 [info]: using SAR=1/1
x264 [info]: using cpu capabilities: MMX2 SSE2Fast SSSE3 Cache64
x264 [info]: profile High, level 4.1
x264 [info]: frame I:1308 Avg QP:15.63 size:103534
x264 [info]: frame P:36913 Avg QP:18.87 size: 38587
x264 [info]: frame B:115488 Avg QP:20.52 size: 19108
x264 [info]: consecutive B-frames: 4.2% 4.3% 8.0% 22.8% 17.6% 29.5% 5.7% 3.9% 2.2% 1.9%
x264 [info]: mb I I16..4: 10.7% 71.6% 17.7%
x264 [info]: mb P I16..4: 2.5% 20.3% 2.0% P16..4: 36.9% 20.7% 12.2% 0.9% 0.2% skip: 4.2%
x264 [info]: mb B I16..4: 0.2% 3.3% 0.2% B16..8: 44.2% 15.1% 4.1% direct: 9.4% skip:23.6% L0:45.2% L1:44.6% BI:10.2%
x264 [info]: 8x8 transform intra:83.1% inter:63.8%
x264 [info]: direct mvs spatial:99.0% temporal:1.0%
x264 [info]: coded y,uvDC,uvAC intra: 90.4% 63.7% 22.0% inter: 42.2% 19.9% 0.8%
x264 [info]: i16 v,h,dc,p: 40% 20% 11% 29%
x264 [info]: i8 v,h,dc,ddl,ddr,vr,hd,vl,hu: 7% 9% 10% 10% 14% 12% 13% 11% 13%
x264 [info]: i4 v,h,dc,ddl,ddr,vr,hd,vl,hu: 8% 13% 4% 9% 15% 14% 14% 11% 13%
x264 [info]: i8c dc,h,v,p: 32% 33% 18% 17%
x264 [info]: Weighted P-Frames: Y:3.0% UV:1.7%
x264 [info]: ref P L0: 42.6% 9.9% 17.6% 7.4% 5.8% 4.2% 3.6% 2.2% 1.9% 1.6% 1.5% 1.4% 0.3% 0.0%
x264 [info]: ref B L0: 67.8% 12.9% 6.7% 3.5% 2.6% 2.1% 1.7% 1.1% 0.9% 0.6% 0.2%
x264 [info]: ref B L1: 90.8% 9.2%
x264 [info]: kb/s:4700.09
x264 [total]: encoded 153709 frames, 0.78 fps, 4700.09 kb/s
____________________________________
Общее:
Уникальный идентификатор: 187209390811784821385801588423701075524 (0x8CD7379806CB51C980F1AF95DF489644)
Полное имя: D:Для сайтаRip'sThe_Fast_and_the_Furious_BDRip_720p_ot_DHT-Movies.mkv
Формат: Matroska
Версия формата: Version 4 / Version 2
Размер файла: 4,18 Гбайт
Продолжительность: 1 ч. 46 м.
Общий поток: 5598 Кбит/сек
Дата кодирования: UTC 2014-01-01 10:41:44
Программа кодирования: mkvmerge v6.5.0 ('Isn't she lovely') built on Oct 20 2013 12:50:05
Библиотека кодирования: libebml v1.3.0 + libmatroska v1.4.1
Видео:
Идентификатор: 1
Формат: AVC
Формат/Информация: Advanced Video Codec
Профиль формата: [email protected]
Параметр CABAC формат: Да
Параметр ReFrames формата: 12 кадров
Идентификатор кодека: V_MPEG4/ISO/AVC
Продолжительность: 1 ч. 46 м.
Битрейт: 4700 Кбит/сек
Ширина: 1280 пикселей
Высота: 544 пикселя
Соотношение сторон: 2,35:1
Режим частоты кадров: Постоянный
Частота кадров: 23,976 кадра/сек
Цветовое пространство: YUV
Субдискретизация насыщенности: 4:2:0
Битовая глубина: 8 бит
Тип развёртки: Прогрессивная
Бит/(Пиксели*Кадры): 0.282
Размер потока: 3,43 Гбайт (82%)
Библиотека кодирования: x264 core 119 r2106 07efeb4
Настройки программы: cabac=1 / ref=12 / deblock=1:-2:-1 / analyse=0x3:0x133 / me=umh / subme=10 / psy=1 / psy_rd=1.05:0.10 / mixed_ref=1 / me_range=32 / chroma_me=1 / trellis=2 / 8x8dct=1 / cqm=0 / deadzone=21,11 / fast_pskip=0 / chroma_qp_offset=0 / threads=3 / sliced_threads=0 / nr=0 / decimate=1 / interlaced=0 / bluray_compat=0 / constrained_intra=0 / bframes=9 / b_pyramid=2 / b_adapt=2 / b_bias=0 / direct=3 / weightb=1 / open_gop=0 / weightp=2 / keyint=240 / keyint_min=23 / scenecut=40 / intra_refresh=0 / rc_lookahead=60 / rc=2pass / mbtree=1 / bitrate=4700 / ratetol=1.0 / qcomp=0.60 / qpmin=0 / qpmax=69 / qpstep=4 / cplxblur=20.0 / qblur=0.5 / ip_ratio=1.40 / aq=1:1.00
Default: Да
Forced: Нет
Аудио #1:
Идентификатор: 2
Формат: AC-3
Формат/Информация: Audio Coding 3
Расширение режима: CM (complete main)
Параметр Endianness формата: Big
Идентификатор кодека: A_AC3
Продолжительность: 1 ч. 46 м.
Вид битрейта: Постоянный
Битрейт: 448 Кбит/сек
Каналы: 6 каналов
Расположение каналов: Front: L C R, Side: L R, LFE
Частота: 48,0 КГц
Битовая глубина: 16 бит
Метод сжатия: С потерями
Размер потока: 342 Мбайт (8%)
Default: Да
Forced: Нет
Аудио #2:
Идентификатор: 3
Формат: AC-3
Формат/Информация: Audio Coding 3
Расширение режима: CM (complete main)
Параметр Endianness формата: Big
Идентификатор кодека: A_AC3
Продолжительность: 1 ч. 46 м.
Вид битрейта: Постоянный
Битрейт: 448 Кбит/сек
Каналы: 6 каналов
Расположение каналов: Front: L C R, Side: L R, LFE
Частота: 48,0 КГц
Битовая глубина: 16 бит
Метод сжатия: С потерями
Размер потока: 342 Мбайт (8%)
Default: Нет
Forced: Нет
Текст #1:
Идентификатор: 4
Формат: UTF-8
Идентификатор кодека: S_TEXT/UTF8
Идентификатор кодека/Информация: UTF-8 Plain Text
Default: Да
Forced: Нет
Текст #2:
Идентификатор: 5
Формат: UTF-8
Идентификатор кодеда: S_TEXT/UTF8
Идентификатор кодека/Информация: UTF-8 Plain Text
Default: Нет
Forced: Нет

Скриншоты:

Яндекс.Метрика
Рейтинг@Mail.ru