[ Сегодня на трекере фрилич! Идет свободное скачивание без начисления Download ]

Робосапиен: Перезагрузка / Robosapien: Rebooted (Шон МакНамара / Sean McNamara) [2013 г., фантастика, драма, приключения, семейный, HDRip] VO

 

Создавать темы 02-Янв-2014 09:33

-Робосапиен: Перезагрузка / Robosapien: Rebooted-- Производство: США
Год выпуска: 2013 г.
Жанр: фантастика, драма, приключения, семейный
Продолжительность: 01:25:00
Мировая премьера: 3 мая 2013
Перевод:Любительский (одноголосый, закадровый) Вячеслав Прошин
Режиссер: Шон МакНамара/Sean McNamara-В ролях: Ким Коутс, Пенелопа Энн Миллер, Дэвид Эйгенберг, Жоаким ди Алмейда, Бобби Коулмэн, Джей Хед, Питер Джейсон, Билли Слотер, Холлистон Коулмэн, Калеб Микаэльсон-Описание: Сюжет сталкивает доброго ученого, разрабатывающего искусственный интеллект в гуманистических целях, с могущественной корпорацией, использующей его наработки в качестве вооружения. Кибернетик крадет одного из готовых роботов по имени Тоби, который после серии злоключений и поломок теряется, а потом находится одиннадцатилетним сыном матери-одиночки, который его и восстанавливает. Следом новоиспеченные друзья спасают ученого и мать от тюрьмы. Сэмпл:http://multi-up.com/936409-
Качество видео: HDRip
Контейнер: AVI
Видео кодек: XviD
Аудио кодек: AC3
Видео: 688*384 пикс, 2030 kbps, 23,976 fps . 0,32bit/pixel
Аудио: 384 kbps, 6 ch, 48,0 КГц
Cубтитры: отсутствуют

Рецензия

В Новогодние каникулы происходят чудеса! И этот фильм приносит чудесное ощущение детства! Приятного семейного просмотра!

Media Info

Общее
Полное имя :Robosapien_Rebooted. 2013[pirat.ca]. HDRip.avi
Формат : AVI
Формат/Информация : Audio Video Interleave
Размер файла : 1,45 Гбайт
Продолжительность : 1 ч. 25 м.
Общий поток : 2423 Кбит/сек
Программа кодирования : VirtualDubMod 1.5.10.3 | www.virtualdub-fr.org || (build 2550/release)
Библиотека кодирования : VirtualDubMod build 2550/release
Видео
Идентификатор : 0
Формат : MPEG-4 Visual
Профиль формата : Advanced [email protected]
Параметр BVOP формата : 2
Параметр QPel формата : Нет
Параметр GMC формата : Без точки перехода
Параметр матрицы формата : Default (H.263)
Идентификатор кодека : XVID
Идентификатор кодека/Подсказка : XviD
Продолжительность : 1 ч. 25 м.
Битрейт : 2030 Кбит/сек
Ширина : 688 пикселей
Высота : 384 пикселя
Соотношение сторон : 16:9
Частота кадров : 23,976 кадра/сек
Цветовое пространство : YUV
Субдискретизация насыщенности : 4:2:0
Битовая глубина : 8 бит
Тип развёртки : Прогрессивная
Метод сжатия : С потерями
Бит/(Пиксели*Кадры) : 0.320
Размер потока : 1,22 Гбайт (84%)
Библиотека кодирования : XviD 1.2.1 (UTC 2008-12-04)
Аудио
Идентификатор : 1
Формат : AC-3
Формат/Информация : Audio Coding 3
Расширение режима : CM (complete main)
Параметр Endianness формата : Big
Идентификатор кодека : 2000
Продолжительность : 1 ч. 25 м.
Вид битрейта : Постоянный
Битрейт : 384 Кбит/сек
Каналы : 6 каналов
Расположение каналов : Front: L C R, Side: L R, LFE
Частота : 48,0 КГц
Битовая глубина : 16 бит
Метод сжатия : С потерями
Размер потока : 236 Мбайт (16%)
Выравнивание : Разделение по промежуткам
Продолжительность промежутка : 42 мс. (1,00 видеокадр)
Время предзагрузки промежутка : 500 мс.

Скриншот c названием фильма

Скриншоты

Яндекс.Метрика
Рейтинг@Mail.ru