Уроки вождения / Учась рулить / Learning to Drive (Изабель Койшет / Isabel Coixet) [2014 г., Лирическая комедия, HDRip] Dub [iTunes]

 

Создавать темы 23-Июл-2016 02:43

-Уроки вождения / Учась рулить / Learning to Drive-- Производство: Великобритания, США, Broad Green Pictures,Core Pictures, Lavender Pictures
Год выпуска: 2014 г.
Жанр: Лирическая комедия
Продолжительность: 01:29:39Мировая премьера: 9 сентября 2014
Перевод: Профессиональный (полное дублирование) [iTunes]
Режиссер: Изабель Койшет / Isabel Coixet-В ролях: Бен Кингсли (Кришна Бханджи), Патришия Кларксон, Грэйс Гаммер, Джейк Уэбер, Сарита Чоудри, Джон Ходжмэн, Даниэла Лавендер, Саманта Би, Мэтт Сэлинджер, Эви Нэш-Описание: После того, как брак писательницы из Манхеттена распадается, она берет уроки вождения у инструктора по имени Сикх, который недавно развелся с женой. Общая проблема позволит им найти в себе силы и мужество, чтобы вернуться на дорогу и сесть за руль.-
Качество видео: HDRip
Контейнер: AVI
Видео кодек: XviD
Аудио кодек: AC3
Видео: 720x384 (1.88:1), 24.000 fps, XviD build 50 ~1935 kbps avg, 0.29 bit/pixel
Аудио: 48 kHz, AC3 Dolby Digital, 2/0 (L,R) ch, ~384 kbps
Cубтитры: отсутствуют

Рецензия

Да, это действительно фильм о мелочах нашей жизни, из которых она и состоит. Признаюсь, что когда прочитал описание — был уверен, что речь пойдет о полудиком индусе и типичной американке, о противостоянии их культур и преодолении различий. На самом деле фильм о другом.В центре повествования личностные истории героев, которые плавно и легко переплетаются, образуя единый сюжет. Взаимопонимание главных героев доходит до самых глубин, здесь нет места столкновению культур и обычаев.Суть, как мне кажется, в тех незаметных мелочах, которые присутствуют в сценарии. Он действительно проработан детально и это делает кино весьма и весьма увлекательным без каких-либо спецэффектов или внезапных поворотов сюжета.Интересно показана жизнь индуса в США, взаимоотношения, судьба человека. Кингсли как обычно хорош. Внимание к деталям проявляется во всем: в одежде, в обстановке, декорациях, диалогах… Это просто очень спокойное и очень приятное кино, в первую очередь за счет грамотного сценария и интересной истории. В ней многие найдут что-то свое. Какие-то вещи все-таки объединяют людей всех культур: отношения с противоположным полом, желание отстоять свою индивидуальность и в то же время найти компромисс.Рекомендую к просмотру

Media Info

Общее
Полное имя : J:\Уроки вождения\Yroki vozhdeniya.2014.D.HDRip.[pirat.ca].avi
Формат : AVI
Формат/Информация : Audio Video Interleave
Размер файла : 1,46 Гбайт
Продолжительность : 1 ч. 29 м.
Общий поток : 2329 Кбит/сек
Название фильма : Yroki vozhdeniya.2014.D.HDRip.[pirat.ca]
Программа кодирования : VirtualDubMod 1.5.10.2 (build 2540/release)Видео
Идентификатор : 0
Формат : MPEG-4 Visual
Профиль формата : Advanced [email protected]/* */
Параметр BVOP формата : 2
Параметр QPel формата : Нет
Параметр GMC формата : Без точки перехода
Параметр матрицы формата : Default (MPEG)
Идентификатор кодека : XVID
Идентификатор кодека/Подсказка : XviD
Продолжительность : 1 ч. 29 м.
Битрейт : 1935 Кбит/сек
Ширина : 720 пикселей
Высота : 384 пикселя
Соотношение сторон : 1,85:1
Частота кадров : 24,000 кадра/сек
Цветовое пространство : YUV
Субдискретизация насыщенности : 4:2:0
Битовая глубина : 8 бит
Тип развёртки : Прогрессивная
Метод сжатия : С потерями
Бит/(Пиксели*Кадры) : 0.292
Размер потока : 1,21 Гбайт (83%)
Библиотека кодирования : XviD 1.2.1 (UTC 2008-12-04)Аудио
Идентификатор : 1
Формат : AC-3
Формат/Информация : Audio Coding 3
Расширение режима : CM (complete main)
Параметр Endianness формата : Big
Идентификатор кодека : 2000
Продолжительность : 1 ч. 29 м.
Вид битрейта : Постоянный
Битрейт : 384 Кбит/сек
Каналы : 2 канала
Расположение каналов : Front: L R
Частота : 48,0 КГц
Частота кадров : 31,250 кадров/сек (1536 spf)
Метод сжатия : С потерями
Размер потока : 246 Мбайт (16%)
Выравнивание : Разделение по промежуткам
Продолжительность промежутка : 42 мс. (1,00 видеокадр)
Время предзагрузки промежутка : 500 мс.

Скриншот c названием фильма

Скриншоты

-Трейлер
Яндекс.Метрика
Рейтинг@Mail.ru