[ Сегодня на трекере фрилич! Идет свободное скачивание без начисления Download ]

Несносные леди / День матери / Mother's Day (Гэрри Маршалл / Garry Marshall) [2016 г., комедия, BDRip-AVC] Dub [МОСФИЛЬМ-мастер 2016]

 

Создавать темы 23-Июл-2016 02:35

-Несносные леди / День матери / Mother's Day-- Производство: США, Beatnik Films, Capacity Pictures, Gulfstream Pictures, May Day Movies, Open Road Films (II), Palm-Star Entertainment, Rice Films, Triad Film Works
Год выпуска: 2016 г.
Жанр: комедия
Продолжительность: 01:58:50Мировая премьера: 13 апреля 2016
Российская премьера: 28 апреля 2016, «Парадиз»
Дата выхода DVD: 15 августа 2016, «Парадиз Медиа»
Перевод: Профессиональный (полное дублирование) [МОСФИЛЬМ-мастер 2016]
Режиссер: Гэрри Маршалл / Garry Marshall-В ролях: Дженнифер Энистон, Джулия Робертс, Кейт Хадсон, Джейсон Судейкис, Тимоти Олифант, Шэй Митчелл, Калеб Браун, Брэндон Спинк, Сэм Маршалл, Сиена ЛаГамбина
Дублёры: Людмила Шувалова, Елена Шульман, Марианна Шульц, Денис Беспалый, Александр Коврижных, Варвара Чабан, ...-Описание: Фитнес и шопинг, капризные предки и непослушные дети, завистливые подружки и надоевшие бывшие — милые составляющие настоящего женского счастья. А также мужского, если ты — отец-одиночка. И неважно, где и как сведет вас жизнь, если ты встретишь настоящую любовь. Главное — не сдаваться! Ведь судьба — это большой супермаркет, а не магазин на диване.-
Качество видео: BDRip-AVC
Контейнер: MKV
Видео кодек: MPEG4 AVC
Аудио кодек: AC3
Видео: 1563 Кбит/сек, 816x442 (16:9), 23,976 кадр/сек, AVC
Аудио: русский, 192 Кбит/сек, 48 КГц, 16 бит, 2.0, AC3
Качество видео: BDRip-AVC [Mother's Day (2016) 1080p BD-Remux HDCLUB]
Cубтитры: отсутствуют

Доп. информация

Вторая совместная работа Бритт Робертсон и Дженнифер Энистон. Они сыграли вместе в фильме «Торт», вышедшем в 2014 году.
Это пятая совместная работа Дженнифер Энистон и Джейсона Судейкиса. Они снимались вместе в фильмах «Охотник за головами» (2010), «Несносные боссы» (2011), «Мы — Миллеры» (2013) и «Несносные боссы 2» (2014).
Четвёртая роль Джулии Робертс в фильмах Гэрри Маршалла. Она уже снималась у него в «Красотке» (1990), «Сбежавшей невесте» (1999) и «Дне Святого Валентина» (2010).
Это третий фильм режиссёра Гэрри Маршалла, в названии которого упоминается праздник (английское название фильма — «Mother`s Day», то есть «День матери», который отмечают во второе воскресенье мая). Первыми двумя были «День Святого Валентина» (2010) и «Старый» Новый год» (2011).

Рецензия

Я, как и многие зрители этого фильма, возмущена «перевёрнутым» названием фильма. Мне кажется, если бы у фильма осталось оригинальное название «День матери», то он бы привлёк большее количество зрителей. «Несносные леди» — это ассоциируются, лично для меня, как очередная пошлая комедия, с шутками про разные части тела, хотя большинство видят в этом маркетинговый ход от «Несносные боссы».Не скажу, что фильм я ждала, знала, что он выйдет. Очень меня заинтересовал актёрские состав: Дженифер Энистон, Джулия Робертс и Кейт Хадсон.Фильм рассказывает три истории о мамах и одну об отце-одиночке. Все они немного связаны между собой. В картине поднимаются многие актуальные проблемы — отношение с детьми-подростками, развод и отношения с «новыми» родителями, однополые браки и браки с иностранцами, приемные дети и прочее. Герои с легкостью решают все сложности и борются за главную ценность в жизни — СЕМЬЮ.Мне понравилось, что в фильме показали, чем живет современное общество. Все современные технологии типа Skype, смартфоны, Instagram. Это и Stand Up, который стал так популярен в России, кстати, там был хороший юмор, и разные разговорные словечки типа «твитнуть».Фильм при всем этом легко смотрится, его также дополняет хорошая музыка. Все это вместе несомненно поднимает настроение. Есть о чем подумать во время его просмотра, проанализировать. Фильм мог бы стать семейным, но одна из истории связана с нетрадиционной ориентацией. Поэтому, если вы готовы объяснять такие подробности своим детям — смотреть всей семьей. Если же нет — лучше посмотрите в одиночку. Уверенна, кино вам понравится.9 из 10

Media Info

Общее
Уникальный идентификатор : 205977583615004364705547471148989863856 (0x9AF5D6F10D63C973B91723AE2234D7B0)
Полное имя : J:\Несносные леди\Mother's Day.2016.BDRip-AVC.[pirat.ca].mkv
Формат : Matroska
Версия формата : Version 2
Размер файла : 1,46 Гбайт
Продолжительность : 1 ч. 58 м.
Общий поток : 1757 Кбит/сек
Название фильма : Mother's Day (2016)
Дата кодирования : UTC 2016-07-22 15:11:24
Программа кодирования : mkvmerge v5.3.0 ('I could have danced') built on Feb 9 2012 10:38:07
Библиотека кодирования : libebml v1.2.3 + libmatroska v1.3.0Видео
Идентификатор : 1
Формат : AVC
Формат/Информация : Advanced Video Codec
Профиль формата : [email protected]/* */
Параметр CABAC формата : Да
Параметр ReFrames формата : 15 кадров
Идентификатор кодека : V_MPEG4/ISO/AVC
Продолжительность : 1 ч. 58 м.
Битрейт : 1563 Кбит/сек
Ширина : 816 пикселей
Высота : 442 пикселя
Соотношение сторон : 1,85:1
Режим частоты кадров : Постоянный
Частота кадров : 23,976 (24000/1001) кадра/сек
Цветовое пространство : YUV
Субдискретизация насыщенности : 4:2:0
Битовая глубина : 8 бит
Тип развёртки : Прогрессивная
Бит/(Пиксели*Кадры) : 0.181
Размер потока : 1,27 Гбайт (87%)
Заголовок : Mother's Day (2016)
Библиотека кодирования : x264 core 148 r2705+54 9f484c1 t_mod_Custom [[email protected]/* */ X86_64]
Настройки программы : cabac=1 / ref=15 / deblock=1:-3:-2 / analyse=0x3:0x133 / me=umh / subme=10 / psy=1 / fade_compensate=0.00 / psy_rd=1.00:0.00 / mixed_ref=1 / me_range=32 / chroma_me=1 / trellis=2 / 8x8dct=1 / cqm=0 / deadzone=21,11 / fast_pskip=0 / chroma_qp_offset=-2 / threads=12 / lookahead_threads=3 / sliced_threads=0 / nr=0 / decimate=0 / interlaced=0 / bluray_compat=0 / constrained_intra=0 / fgo=0 / bframes=15 / b_pyramid=2 / b_adapt=2 / b_bias=0 / direct=3 / weightb=1 / open_gop=0 / weightp=2 / keyint=240 / keyint_min=23 / scenecut=40 / intra_refresh=0 / rc_lookahead=60 / rc=2pass / mbtree=0 / bitrate=1563 / ratetol=1.0 / qcomp=0.65 / qpmin=0:0:0 / qpmax=69:69:69 / qpstep=4 / cplxblur=20.0 / qblur=0.5 / vbv_maxrate=50000 / vbv_bufsize=62500 / nal_hrd=none / filler=0 / ip_ratio=1.40 / pb_ratio=1.30 / aq=3:0.90 / aq-sensitivity=10.00 / aq-factor=1.00:1.00:1.00 / aq2=0 / aq3=0
Default : Да
Forced : Нет
Statistics Tags Issue : mkvmerge v8.6.1 ('Flying') 64bit 2016-07-22 12:57:05 / mkvmerge v5.3.0 ('I could have danced') built on Feb 9 2012 10:38:07 2016-07-22 15:11:24
FromStats_BitRate : 1562896
FromStats_Duration : 01:58:50.123000000
FromStats_FrameCount : 170952
FromStats_StreamSize : 1392955115Аудио
Идентификатор : 2
Формат : AC-3
Формат/Информация : Audio Coding 3
Расширение режима : CM (complete main)
Параметр Endianness формата : Big
Идентификатор кодека : A_AC3
Продолжительность : 1 ч. 58 м.
Вид битрейта : Постоянный
Битрейт : 192 Кбит/сек
Каналы : 2 канала
Расположение каналов : Front: L R
Частота : 48,0 КГц
Частота кадров : 31,250 кадров/сек (1536 spf)
Метод сжатия : С потерями
Размер потока : 163 Мбайт (11%)
Язык : Russian
Default : Да
Forced : Нет
Statistics Tags Issue : mkvmerge v8.6.1 ('Flying') 64bit 2016-07-22 12:57:05 / mkvmerge v5.3.0 ('I could have danced') built on Feb 9 2012 10:38:07 2016-07-22 15:11:24
FromStats_BitRate : 192000
FromStats_Duration : 01:58:50.144000000
FromStats_FrameCount : 222817
FromStats_StreamSize : 171123456Меню
00:00:00.000 : en:Chapter 1
00:05:50.891 : en:Chapter 2
00:08:50.111 : en:Chapter 3
00:15:32.389 : en:Chapter 4
00:22:11.413 : en:Chapter 5
00:28:43.721 : en:Chapter 6
00:35:48.646 : en:Chapter 7
00:43:12.297 : en:Chapter 8
00:48:07.717 : en:Chapter 9
00:55:35.248 : en:Chapter 10
00:59:36.155 : en:Chapter 11
01:05:33.179 : en:Chapter 12
01:10:23.636 : en:Chapter 13
01:18:21.697 : en:Chapter 14
01:23:46.979 : en:Chapter 15
01:29:07.591 : en:Chapter 16
01:34:27.828 : en:Chapter 17
01:38:48.421 : en:Chapter 18
01:44:50.324 : en:Chapter 19
01:49:32.064 : en:Chapter 20

Скриншот c названием фильма

Скриншоты

-Трейлер
Яндекс.Метрика
Рейтинг@Mail.ru