Убийства в Оксфорде / The Oxford Murders (Алекс де ла Иглесиа / Álex de la Iglesia) [2008 г., триллер, криминал, детектив, BDRip-AVC] MVO Sub (Rus)

 

Создавать темы 23-Июл-2016 02:28

-Убийства в Оксфорде / The Oxford Murders-- Производство: Франция, Великобритания, Испания, Canal+ España, Canal+ [fr], Eurimages, HBC, ICO, La Fabrique de Films, Oxford Crimes, Telecinco Cinema, Tornasol Films
Год выпуска: 2008 г.
Жанр: триллер, криминал, детектив
Продолжительность: 01:48:27Мировая премьера: 17 января 2008
Дата выхода DVD: 23 октября 2008, «Парадиз Медиа»
Перевод: Профессиональный (многоголосый, закадровый)
Режиссер: Алекс де ла Иглесиа / Álex de la Iglesia-В ролях: Элайджа Вуд, Джон Хёрт, Леонор Уотлинг, Джули Кокс, Берн Горман, Анна Мэсси, Джим Картер, Алан Дэвид, Доминик Пинон-Описание: Мартин — студент, поступивший в престижный университет — Оксфорд, где неожиданно происходит целая серия загадочных убийств. Он вместе с детективом — приверженцем логики и математики — начинает собственное расследование, вторгаясь во всё более и более любопытные закоулки знаменитого университета…-
Качество видео: BDRip-AVC
Контейнер: MKV
Видео кодек: MPEG4 AVC
Аудио кодек: AC3
Видео: MPEG-4 AVC, 2750 Кбит/с, 1024x436, 23,976 (24000/1001) кадра/сек
Аудио: AC3, 6 ch, 448 Кбит/с, 48,0 КГц
Cубтитры: русские
Формат субтитров: softsub (SRT)
Доп. информация о субтитрах: включаемые

Доп. информация

Фильм снят по мотивам романа Гильермо Мартинеса «Незаметные убийства» (Crimenes imperceptibles, 2003).

Награды

Гойя, 2009 год
Победитель (3):
Лучший монтаж
Лучший оригинальный саундтрек
Лучшее руководство производством
Номинации (3):
Лучший фильм
Лучший режиссер (Алекс де ла Иглесиа)
Лучший адаптированный сценарий

Рецензия

Пока законы математики остаются определенными, они не имеют ничего общего с реальностью; как только у них появляется нечто общее с реальностью, они перестают быть определенными. Альберт ЭйнштейнРешила посмотреть этот фильм из-за того, что Элайджа Вуд известный мне, да думаю и многим только по «Властелин колец» играет другую роль. Вдумчивую и интересную, во всяком случае, как мне показалось по трейлеру.И вот я посмотрела. Фильм интересный, довольно непредсказуемый, а формулы и размышления героев — очень интересны. Так и хочется после просмотра решать, думать, размышлять. Так же мне очень понравилось, как сыграл Берн Горман (в фильме Юрий Подоров). От него так и веяло гениальностью, умом и обидой на тех, кто его не понимает. Позабавил тот факт, что у него русское имя.Абсолютно не понравились эротические сцены. Они были ни к чему, только подпортили впечатление.Фильм советую тем, кто любит математику, логику и просто тем, кому хочется поразмышлять.8 из 10

Media Info

Общее
Уникальный идентификатор : 223368733279358675576651078633901201279 (0xA80B40D2200DC476A677593D4567177F)
Полное имя : D:\D\Убийства в Оксфорде\The Oxford Murders.2008.BDRip-AVC.[pirat.ca].mkv
Формат : Matroska
Версия формата : Version 2
Размер файла : 2,42 Гбайт
Продолжительность : 1 ч. 48 м.
Общий поток : 3200 Кбит/сек
Название фильма : The Oxford Murders.2008. BDRip-AVC
Дата кодирования : UTC 2016-07-22 15:40:23
Программа кодирования : mkvmerge v5.3.0 ('I could have danced') built on Feb 9 2012 10:38:07
Библиотека кодирования : libebml v1.2.3 + libmatroska v1.3.0
Attachments : poster.jpgВидео
Идентификатор : 1
Формат : AVC
Формат/Информация : Advanced Video Codec
Профиль формата : [email protected]/* */
Параметр CABAC формата : Да
Параметр ReFrames формата : 8 кадров
Идентификатор кодека : V_MPEG4/ISO/AVC
Продолжительность : 1 ч. 48 м.
Битрейт : 2750 Кбит/сек
Ширина : 1024 пикселя
Высота : 436 пикселей
Соотношение сторон : 2,35:1
Режим частоты кадров : Постоянный
Частота кадров : 23,976 (24000/1001) кадра/сек
Цветовое пространство : YUV
Субдискретизация насыщенности : 4:2:0
Битовая глубина : 8 бит
Тип развёртки : Прогрессивная
Бит/(Пиксели*Кадры) : 0.257
Размер потока : 2,04 Гбайт (84%)
Библиотека кодирования : x264 core 138 r2358 9e941d1
Настройки программы : cabac=1 / ref=8 / deblock=1:-3:-3 / analyse=0x3:0x133 / me=umh / subme=10 / psy=1 / psy_rd=1.00:0.00 / mixed_ref=1 / me_range=48 / chroma_me=1 / trellis=2 / 8x8dct=1 / cqm=0 / deadzone=21,11 / fast_pskip=1 / chroma_qp_offset=-2 / threads=6 / lookahead_threads=1 / sliced_threads=0 / nr=0 / decimate=1 / interlaced=0 / bluray_compat=0 / constrained_intra=0 / bframes=8 / b_pyramid=2 / b_adapt=2 / b_bias=0 / direct=3 / weightb=1 / open_gop=0 / weightp=2 / keyint=240 / keyint_min=24 / scenecut=40 / intra_refresh=0 / rc=2pass / mbtree=0 / bitrate=2750 / ratetol=1.0 / qcomp=0.60 / qpmin=0 / qpmax=69 / qpstep=4 / cplxblur=20.0 / qblur=0.5 / ip_ratio=1.40 / pb_ratio=1.30 / aq=1:1.00
Язык : English
Default : Да
Forced : Нет
Statistics Tags Issue : mkvmerge v9.3.1 ('Mask Machine') 64bit 2016-07-20 19:28:18 / mkvmerge v5.3.0 ('I could have danced') built on Feb 9 2012 10:38:07 2016-07-22 15:40:23
FromStats_BitRate : 2750159
FromStats_Duration : 01:48:27.376000000
FromStats_FrameCount : 156021
FromStats_StreamSize : 2237040246Аудио
Идентификатор : 2
Формат : AC-3
Формат/Информация : Audio Coding 3
Расширение режима : CM (complete main)
Параметр Endianness формата : Big
Идентификатор кодека : A_AC3
Продолжительность : 1 ч. 48 м.
Вид битрейта : Постоянный
Битрейт : 448 Кбит/сек
Каналы : 6 каналов
Расположение каналов : Front: L C R, Side: L R, LFE
Частота : 48,0 КГц
Частота кадров : 31,250 кадров/сек (1536 spf)
Метод сжатия : С потерями
Размер потока : 348 Мбайт (14%)
Язык : Russian
Default : Да
Forced : Нет
Statistics Tags Issue : mkvmerge v9.3.1 ('Mask Machine') 64bit 2016-07-20 19:28:18 / mkvmerge v5.3.0 ('I could have danced') built on Feb 9 2012 10:38:07 2016-07-22 15:40:23
FromStats_BitRate : 448000
FromStats_Duration : 01:48:29.088000000
FromStats_FrameCount : 203409
FromStats_StreamSize : 364508928Текст
Идентификатор : 3
Формат : UTF-8
Идентификатор кодека : S_TEXT/UTF8
Идентификатор кодека/Информация : UTF-8 Plain Text
Заголовок : Русские
Язык : Russian
Default : Нет
Forced : Нет
Statistics Tags Issue : mkvmerge v9.3.1 ('Mask Machine') 64bit 2016-07-20 19:28:18 / mkvmerge v5.3.0 ('I could have danced') built on Feb 9 2012 10:38:07 2016-07-22 15:40:23
FromStats_BitRate : 130
FromStats_Duration : 01:43:35.966000000
FromStats_FrameCount : 1495
FromStats_StreamSize : 101687Меню
00:00:00.000 : en:Chapter 1
00:07:09.926 : en:Chapter 2
00:12:03.431 : en:Chapter 3
00:18:35.823 : en:Chapter 4
00:22:49.701 : en:Chapter 5
00:34:28.565 : en:Chapter 6
00:45:13.460 : en:Chapter 7
00:54:04.074 : en:Chapter 8
01:02:31.414 : en:Chapter 9
01:10:54.582 : en:Chapter 10
01:16:55.027 : en:Chapter 11
01:23:10.819 : en:Chapter 12
01:27:10.180 : en:Chapter 13
01:33:12.461 : en:Chapter 14
01:36:42.087 : en:Chapter 15
01:44:12.412 : en:Chapter 16
01:48:26.332 : en:Chapter 17

Скриншот c названием фильма

Скриншоты

-Трейлер
Яндекс.Метрика
Рейтинг@Mail.ru