Вкусная дрянь / The Stuff (Ларри Коэн / Larry Cohen) [1985 г., ужасы, фантастика, комедия, детектив, HDRip] Dub [Варус Видео]

 

Создавать темы 23-Июл-2016 02:26

-Вкусная дрянь / The Stuff-- Производство: США, Larco Productions Inc., New World Pictures, ...
Год выпуска: 1985 г.
Жанр: ужасы, фантастика, комедия, детектив
Продолжительность: 01:26:31Мировая премьера: 14 июня 1985
Перевод: Профессиональный (полное дублирование) [Варус Видео]
Режиссер: Ларри Коэн / Larry Cohen-В ролях: Майкл Мориарти, Андреа Марковиччи, Гаррет Моррис, Пол Сорвино, Скотт Блум, Дэнни Айелло, Патрик О’Нил, Джеймс Диксон, Александр Скурби, Рассел Найп
Дублёры: Александр Новиков, Ирина Акулова, Александр Вдовин, Валентин Голубенко, Татьяна Канаева, Владислав Баландин, ...-Описание: Зимой на Аляске группа людей находит на снегу некую липкую массу, похожую на сгущёнку. Люди пробуют её — она оказывается очень вкусной. Но эта масса обладает одним интересным свойством — она живая. Но такой её особенности люди не придают особого внимания.Через некоторое время данный продукт рекомендуют к питанию по всей стране. Людям она приходится по вкусу, они готовы есть её постоянно и заменить ей все свои обычные продукты питания. В стране строят фабрики, которые будут производить новый пищевой продукт.Далее действие фильма смещается на одну семью. В этом семействе маленький мальчик обращает внимание на особенность массы — она живая и передвигается. Мальчик сообщает о своем наблюдении своим родителям, но они не видят в этом свойстве массы никакой опасности.Но с этой вкусной дрянью всё оказалось совсем не просто — люди, употребляющие её превращаются в бездушных зомби. Такими же становятся и родители мальчика, обнаружившего опасность, а также его старший брат. А сам мальчик вынужден убежать из дома.-
Качество видео: HDRip
Контейнер: AVI
Видео кодек: XviD
Аудио кодек: MP3
Видео: 640x352 (1.82:1), 23.976 fps, XviD build 47 ~1063 kbps avg, 0.20 bit/pixel
Аудио: 48 kHz, MPEG Layer 3, 2 ch, ~128.00 kbps avg
Cубтитры: отсутствуют

Рецензия

Не ешьте «Дрянь», ешьте «Вкуснятину»!Этот фильм скорее комедия, чем ужасы. Сам сюжет высмеивает различные ужастики, которые буквально наводнили кинематограф. Что может быть смешнее белой массы, пожирающей людей. А ведь люди сами это ели! Кстати, слово «stuff» в переводе с английского имеет много значений. К фильму подходят лишь некоторые из них: 1. Вещество, материал. 2. Дрянь, хлам, чепуха. 3. Штука, штуковина. 4. Наркотики (ведь эта штука притягивала к себе людей как наркотик). 5. Наполнитель. 6. Запасы продовольствия. 7. Продукты, напитки (т. е. всё, что употребляется в пищу). 8. Объедаться. И это меньше половины значений этого слова, лишь те, что подходят к данному фильму!«Вкусная дрянь», несмотря на свою комедийность, затрагивает серьёзные проблемы. В фильме говорится о том, что всем этим менеджерам и владельцам торговых точек, всем им, по сути, наплевать на то, что потребляют нормальные люди, главное для них — продать товар. А ещё лучше, если это будет что-то неизвестное, что-то новой. Так и получается с «дрянью». Когда все поняли, что лучше не иметь с ней дело, и её забыли, появился новый продукт под названием «Вкуснятина».Как и во многих других фильмах, во «Вкусной дряни» именно ребёнок обнаруживает отвратительные свойства белой массы, сначала ему никто не верит, а потом все убеждаются, что он прав. Этот приём использовался во многих других фильмах, так что здесь он не вызывает особого интереса.Сам вид этой «дряни» вызывает смех. Действительно, трудно не смеяться, когда белая масса гонится за людьми и пожирает их. Ларри Коэн сделал смех неотъемлемым эффектом этого фильма, хотя не у всех режиссёров это получается. Смех то смехом, но Коэну удалось затащить в свой фильм едкую сатиру на современное производство, а вот это уже встретишь довольно редко.9 из 10

Media Info

Общее
Полное имя : C:\герои 7\Вкусная дрянь\Stuff.1985.HDRip.[pirat.ca].avi
Формат : AVI
Формат/Информация : Audio Video Interleave
Размер файла : 743 Мбайт
Продолжительность : 1 ч. 26 м.
Общий поток : 1201 Кбит/сек
Название фильма : Stuff.1985.HDRip.[pirat.ca]
Программа кодирования : VirtualDubMod 1.5.10.3 | www.virtualdub-fr.org || (build 2550/release)Видео
Идентификатор : 0
Формат : MPEG-4 Visual
Профиль формата : Advanced [email protected]/* */
Параметр BVOP формата : 2
Параметр QPel формата : Нет
Параметр GMC формата : Без точки перехода
Параметр матрицы формата : Default (MPEG)
Идентификатор кодека : XVID
Идентификатор кодека/Подсказка : XviD
Продолжительность : 1 ч. 26 м.
Битрейт : 1064 Кбит/сек
Ширина : 640 пикселей
Высота : 352 пикселя
Соотношение сторон : 16:9
Частота кадров : 23,976 (23976/1000) кадра/сек
Цветовое пространство : YUV
Субдискретизация насыщенности : 4:2:0
Битовая глубина : 8 бит
Тип развёртки : Прогрессивная
Метод сжатия : С потерями
Бит/(Пиксели*Кадры) : 0.197
Размер потока : 658 Мбайт (89%)
Библиотека кодирования : XviD 1.2.0.dev47 (UTC 2006-11-01)Аудио
Идентификатор : 1
Формат : MPEG Audio
Версия формата : Version 1
Профиль формата : Layer 3
Режим : Joint stereo
Расширение режима : MS Stereo
Идентификатор кодека : 55
Идентификатор кодека/Подсказка : MP3
Продолжительность : 1 ч. 26 м.
Вид битрейта : Постоянный
Битрейт : 128 Кбит/сек
Каналы : 2 канала
Частота : 48,0 КГц
Метод сжатия : С потерями
Размер потока : 79,2 Мбайт (11%)
Выравнивание : Соединение по промежуткам
Продолжительность промежутка : 42 мс. (1,00 видеокадр)
Время предзагрузки промежутка : 504 мс.

Скриншот c названием фильма

Скриншоты

-Трейлер
Яндекс.Метрика
Рейтинг@Mail.ru