Необычный детектив / Реальные копы / The Unusuals / Сезон: 1 / Серии: 1-10 из 10 (Константин Макрис Constantine Makris, ...) [2009 г., драма, комедия, детектив, WEB-DL, 720p] MVO (СТС) + Original (Eng)

 

Создавать темы 23-Июл-2016 02:21

-Необычный детектив / Реальные копы / The Unusuals-- Производство: США, 26 Keys Productions, Sony Pictures Television, Totally Commercial Films
Жанр: драма, комедия, детектив
Год выпуска: 2009 г.
Продолжительность: 00:43:00Мировая премьера: 8 апреля 2009
Перевод: Профессиональный (многоголосый, закадровый) [СТС]
Оригинальный аудиопоток: английскийРежиссер: Константин Макрис Constantine Makris, ...-В ролях: Эмбер Тэмблин, Джереми Реннер, Хэролд Перрино, Джошуа Клоуз, Моник Кёрнен, Кай Леннокс, Терри Кинни, Адам Голдберг, Кевин Кэннон, Йен Кан-Описание: Детектива Кейси Шриджер переводят в Нью-Йоркский полицейский департамент по расследованию убийств. Где она вскоре понимает, что один «дефективный детектив» это не так уж и плохо, ведь среди её новых коллег таковых каждый первый. У каждого из них свой скелет в шкафу, у каждого своя личная драма.-
Качество видео: WEB-DL
Контейнер: MKV
Стандарт разрешения: 720p
Видео кодек: MPEG4 AVC
Аудио кодек: AC3
Видео: 3912 Кбит/сек, 1280х720, 23,976 кадра/сек
Аудио: A_AC3, 192 Кбит/сек, 2 канала, 48,0 КГц
Аудио #2: A_AC3, 192 Кбит/сек, 2 канала, 48,0 КГцCубтитры: отсутствуют

Рецензия

«Необычные» (другая версия названия) — это тот сериал из-за закрытия которого стонут все фанаты, но всё равно с удовольствием пересматривают выпущенные десять эпизодов.Где ещё вы найдете такую актерскую группу?Джереми Реннер, Адам Голдберг, Эмбер Тэмблин (Мастерс из «Доктора Хауса», Хэролд Перрино (Майкл из «Лоста», Моника Карнен (Валловски из «Обмани меня» и многие другие.Сюжет прост да не совсем. Вроде бы очередной полицейский отдел и снова героям предстоит расследовать преступления. Но только и преступники у них странноватые, да и сами копы с причудами. Один уверен, что вот-вот умрет и достает этой навязчивой идеей окружающих. Богатая девочка получает в напарники обаятельного детектива у которого страстный роман с коллегой и комната позади закусочной в качестве жилья. Богобоязненный и принципиальный полицейский боится своего темного прошлого. Ещё есть самодовольный дуралей, который осложняет жизнь всем остальным, но над которым так здорово подшучивать.Сериал остроумный и адекватный одновременно, с хорошим саундтреком и крепким сценарием. Рекомендован к просмотру.

Media Info

Общее
Уникальный идентификатор : 191156623182936879493137244273179654650 (0x8FCF6D2CD96E04CF8749AD8C914879FA)
Полное имя : F:\ПОСЛЕДНИЕ ЗАГРУЗКИ\Реальные копы\The Unusuals.S01.2009.СТС. 720p.[pirat.ca]\The.Unusuals.S01E01.WEB-DL.720p.Rus.Eng.mkv
Формат : Matroska
Версия формата : Version 4 / Version 2
Размер файла : 1,32 Гбайт
Продолжительность : 43 м.
Общий поток : 4384 Кбит/сек
Дата кодирования : UTC 2014-11-24 04:46:01
Программа кодирования : mkvmerge v6.9.1 ('Blue Panther') 64bit built on Apr 18 2014 18:23:38
Библиотека кодирования : libebml v1.3.0 + libmatroska v1.4.1Видео
Идентификатор : 1
Формат : AVC
Формат/Информация : Advanced Video Codec
Профиль формата : [email protected]/* */
Параметр CABAC формата : Нет
Параметр ReFrames формата : 2 кадра
Идентификатор кодека : V_MPEG4/ISO/AVC
Продолжительность : 43 м.
Битрейт : 3912 Кбит/сек
Ширина : 1280 пикселей
Высота : 720 пикселей
Соотношение сторон : 16:9
Режим частоты кадров : Постоянный
Частота кадров : 23,976 кадра/сек
Цветовое пространство : YUV
Субдискретизация насыщенности : 4:2:0
Битовая глубина : 8 бит
Тип развёртки : Прогрессивная
Бит/(Пиксели*Кадры) : 0.177
Размер потока : 1,18 Гбайт (89%)
Язык : English
Default : Да
Forced : Нет
Цветовой диапазон : Limited
Основные цвета : BT.709
Характеристики трансфера : BT.709
Коэффициенты матрицы : BT.709Аудио #1
Идентификатор : 2
Формат : AC-3
Формат/Информация : Audio Coding 3
Расширение режима : CM (complete main)
Параметр Endianness формата : Big
Идентификатор кодека : A_AC3
Продолжительность : 43 м.
Вид битрейта : Постоянный
Битрейт : 192 Кбит/сек
Каналы : 2 канала
Расположение каналов : Front: L R
Частота : 48,0 КГц
Частота кадров : 31,250 кадров/сек (1536 spf)
Метод сжатия : С потерями
Размер потока : 59,4 Мбайт (4%)
Язык : Russian
Default : Да
Forced : НетАудио #2
Идентификатор : 3
Формат : AC-3
Формат/Информация : Audio Coding 3
Расширение режима : CM (complete main)
Параметр Endianness формата : Big
Идентификатор кодека : A_AC3
Продолжительность : 43 м.
Вид битрейта : Постоянный
Битрейт : 192 Кбит/сек
Каналы : 2 канала
Расположение каналов : Front: L R
Частота : 48,0 КГц
Частота кадров : 31,250 кадров/сек (1536 spf)
Метод сжатия : С потерями
Размер потока : 59,4 Мбайт (4%)
Язык : English
Default : Нет
Forced : Нет

Скриншот c названием фильма

Скриншоты

-Трейлер
Яндекс.Метрика
Рейтинг@Mail.ru