Люди Икс: Апокалипсис / X-Men: Apocalypse (Брайан Сингер / Bryan Singer) [2016 г., Фантастика, фэнтези, боевик, приключения, WEBRip, 720p] Dub (Чистый звук) + Sub (Kor)

 

Создавать темы 20-Июл-2016 03:26

-Люди Икс: Апокалипсис / X-Men: Apocalypse-- Производство: США, 20th Century Fox Film Corporation, Bad Hat Harry Productions, Donners' Company, Marvel Entertainment, Mel's Cite du Cinema, TSG Entertainment
Год выпуска: 2016 г.
Жанр: Фантастика, фэнтези, боевик, приключения
Продолжительность: 02:23:30Перевод: Профессиональный (полное дублирование) [Чистый звук]
Режиссер: Брайан Сингер / Bryan Singer-В ролях: Джеймс МакЭвой, Майкл Фассбендер, Дженнифер Лоуренс, Эван Питерс, Оливия Манн, Роуз Бирн, Оскар Айзек, Софи Тёрнер, Николас Холт, Тай Шеридан-Описание: После событий "Дней минувшего будущего" мировое сообщество начинает осознавать присутствие среди обычных людей мутантов со сверхчеловеческими способностями. Но спокойно разобраться с внезапно вскрывшимися подробностями не позволяет случайно разбуженный от многовекового сна древний мутант Эн Сабах Нур, несущий апокалипсис в раздираемый противоречиями мир уже сегодня. Людям Икс предстоит решающая битва с самым могущественным врагом из тех, с кем им приходилось сталкиваться ранее.-
Качество видео: WEBRip
Контейнер: MKV
Стандарт разрешения: 720p
Видео кодек: MPEG4 AVC
Аудио кодек: AC3
Видео: 1280x720, 29,76 fps, 2785 kbps, 0.10 bit/pixel
Аудио: Аудио: 48 kHz, AC3 Dolby Digital, 2 ch stereo, ~192 kbps
Cубтитры: иврит
Формат субтитров: hardsub (неотключаемые)

Media Info

Код:
General
Complete name                    : W:\X-LuDi.Apocalypse.2O16.D.WEBRip.72OP_KOSHARA.mkv
Format                           : Matroska
File size                        : 3.18 GiB
Duration                         : 2h 23mn
Overall bit rate                 : 3 172 Kbps
Encoded date                     : UTC 2016-07-19 08:32:09
Writing application              : mkvmerge v8.3.0 ('Over the Horizon') 64bit
Writing library                  : libebml v1.3.1 + libmatroska v1.4.2Video
ID                               : 1
Format                           : AVC
Format/Info                      : Advanced Video Codec
Format profile                   : [email protected]/*  */
Format settings, CABAC           : No
Format settings, ReFrames        : 1 frame
Muxing mode                      : Container [email protected]/*  */
Codec ID                         : V_MPEG4/ISO/AVC
Duration                         : 2h 23mn
Bit rate                         : 2 725 Kbps
Width                            : 1 280 pixels
Height                           : 720 pixels
Display aspect ratio             : 16:9
Frame rate mode                  : Variable
Frame rate                       : 29.970 fps
Color space                      : YUV
Chroma subsampling               : 4:2:0
Bit depth                        : 8 bits
Scan type                        : Progressive
Bits/(Pixel*Frame)               : 0.099
Stream size                      : 2.73 GiB (86%)Audio #1
ID                               : 2
Format                           : AC-3
Format/Info                      : Audio Coding 3
Mode extension                   : CM (complete main)
Codec ID                         : A_AC3
Duration                         : 2h 23mn
Bit rate mode                    : Constant
Bit rate                         : 192 Kbps
Channel(s)                       : 2 channels
Channel positions                : Front: L R
Sampling rate                    : 48.0 KHz
Bit depth                        : 16 bits
Stream size                      : 197 MiB (6%)
Language                         : RussianAudio #2
ID                               : 3
Format                           : AC-3
Format/Info                      : Audio Coding 3
Mode extension                   : CM (complete main)
Codec ID                         : A_AC3
Duration                         : 2h 23mn
Bit rate mode                    : Constant
Bit rate                         : 192 Kbps
Channel(s)                       : 2 channels
Channel positions                : Front: L R
Sampling rate                    : 44.1 KHz
Bit depth                        : 16 bits
Stream size                      : 197 MiB (6%)

Скриншоты

Яндекс.Метрика
Рейтинг@Mail.ru