Американские детки / Kids in America (Джош Столберг / Josh Stolberg) [2005 г., комедия, BDRip-AVC] DVO

 

Создавать темы 20-Июл-2016 03:25

-Американские детки / Kids in America-- Производство: США, Kids in America LLC
Год выпуска: 2005 г.
Жанр: комедия
Продолжительность: 01:31:18Мировая премьера: 21 октября 2005
Перевод: Профессиональный (двухголосый, закадровый)
Режиссер: Джош Столберг / Josh Stolberg-В ролях: Грегори Смит, Стефани Шеррин, Крис Моррис, Кэйтлин Уочс, Эми Колигадо, Кристал Селеста Грант, Alex Anfanger, Джули Боуэн, Мэлик Йоба, Эндрю Шайфер, Николь Ричи, Женевьев Падалеки, Джордж Уэндт, Адам Аркин, Джефф Чейз, Лейла Ли, Damien Luvara, Стив Розенбаум, Розанна Аркетт, Марселла Ленц-Поуп, Элизабет Перкинс, Джастин Холливел, Мэттью Брент, Рэймонд Браун, Ракефет Абергел, Тим Гриффин, Антуанетт Пераджине, У. Эрл Браун, Розали Уорд, Чарльз Шонесси, Ким Коулз, Саманта Мэтис, Оуэн Уильямс, Дерек Уэбстер, Имонн Рош, Мэри Стронг, Деррик Джонс, Сюзанн Крулл, Мишель Филлипс, Рэйн Феникс, Стив Ким, Майкл Таббс, Джонни Эстес, Эми Хилл, Hemina Kapadia, Мартин Пиеррон, Мэтт Райан, Тодд С. Смит, Джош Столберг-Описание: Что делать, если тебе 16 лет и ты полон энергии, а во главе школы стоит настоящий тиран в юбке? Конечно, бороться за свои права! Ради этого и объединились ученики школы Брукера, дать хорошенький пинок под зад директору Уэллер, чей административный пыл на корню душил любые проявления свободомыслия.Неожиданно для себя, они нашли союзника в лице одно из преподавателей — Мистера Дракера, который полностью поддерживал их в борьбе за свои права. Не желая мириться со сложившейся в школе ситуацией, Дракер решается на отчаянный шаг.-
Качество видео: BDRip-AVC
Контейнер: MKV
Видео кодек: MPEG4 AVC
Аудио кодек: AC3
Видео: X.264, 1088x576, 2536 Kbps, 23.976 fps
Аудио: AC3, 5.1 ch, 448 Kbps, 48000 Hz - DVO
Cубтитры: отсутствуют

Рецензия

Живи и дай жить другим!Приступая к просмотру, я хотела всего лишь развлечься и хорошо провести время с молодежной комедией. И была очень приятно удивлена открывшемуся действу.Власть имущие везде диктуют условия. Так происходит в политике, в светском обществе и даже в учебном заведении. «Мне неважно, что ты говоришь. Я старше, влиятельнее и будет так, как я решу» — примерно так считает директриса школы и начинает терроризировать своих учеников. Но, но, но! Заставить можно одного человека, пять и даже десяток. Но заставить всех, когда ты один, нельзя, и это очень хорошо. Вот где срабатывает принцип «один за всех, и все за одного».Те из нас, кто пожертвует частицей свободы во имя временного спокойствия, никогда не будут ни свободны, ни спокойны.Вначале от учебы отстраняют девушку за пропаганду безопасного секса, затем еще парня — за поддержку, а потом уже отстранения следуют один за другим. И школьники думают — вначале нам запрещают выражать свои мысли, потом чувства, а затем будут выгонять за отсутствие модной одежды?! И решают с этим бороться.Самое постоянное в этом мире — это перемены.Умная, ироничная, в чем-то наивная, но очень добрая комедия об основном на мой взгляд постулате мирного сосуществования людей — живи, и дай жить другим. Я так думаю, я так чувствую, мое поведение не приносит тебе беспокойства, так зачем же ты пытаешься переделать меня под себя?Все мы одинаковые, мы одной крови, в груди у нас бьются одинаковые сердца.8 из 10P.S. И мне не кажется, что флешмобовская сцена в зале была пропагандой однополой любви! Это было… весело и честно.

Media Info

Общее
Уникальный идентификатор : 218224230991256517864190055887439581541 (0xA42C75466A2CF8DF94E7FBFEBCEED165)
Полное имя : F:\Американские детки\Kids in America.2005.BDRip-AVC.[pirat.ca].mkv
Формат : Matroska
Версия формата : Version 2
Размер файла : 1,90 Гбайт
Продолжительность : 1 ч. 31 м.
Общий поток : 2981 Кбит/сек
Название фильма : Американские детки / Kids in America (2005) BDRip-AVC
Дата кодирования : UTC 2016-07-18 18:53:34
Программа кодирования : mkvmerge v5.3.0 ('I could have danced') built on Feb 9 2012 10:38:07
Библиотека кодирования : libebml v1.2.3 + libmatroska v1.3.0
Обложка : Yes
Attachments : cover.jpg / cover2.jpg / poster.jpg / BD_cover.jpgВидео
Идентификатор : 1
Формат : AVC
Формат/Информация : Advanced Video Codec
Профиль формата : [email protected]/* */
Параметр CABAC формата : Да
Параметр ReFrames формата : 11 кадров
Идентификатор кодека : V_MPEG4/ISO/AVC
Продолжительность : 1 ч. 31 м.
Битрейт : 2536 Кбит/сек
Ширина : 1088 пикселей
Высота : 576 пикселей
Соотношение сторон : 1,889
Режим частоты кадров : Постоянный
Частота кадров : 23,976 (24000/1001) кадра/сек
Цветовое пространство : YUV
Субдискретизация насыщенности : 4:2:0
Битовая глубина : 8 бит
Тип развёртки : Прогрессивная
Бит/(Пиксели*Кадры) : 0.169
Размер потока : 1,58 Гбайт (83%)
Библиотека кодирования : x264 core 116 r2057 0ba8a9c
Настройки программы : cabac=1 / ref=11 / deblock=1:-2:-2 / analyse=0x3:0x113 / me=umh / subme=9 / psy=1 / psy_rd=1.05:0.03 / mixed_ref=1 / me_range=32 / chroma_me=1 / trellis=2 / 8x8dct=1 / cqm=0 / deadzone=21,11 / fast_pskip=0 / chroma_qp_offset=-3 / threads=6 / sliced_threads=0 / nr=0 / decimate=1 / interlaced=0 / bluray_compat=0 / constrained_intra=0 / bframes=9 / b_pyramid=2 / b_adapt=2 / b_bias=0 / direct=3 / weightb=1 / open_gop=0 / weightp=2 / keyint=250 / keyint_min=23 / scenecut=40 / intra_refresh=0 / rc=2pass / mbtree=0 / bitrate=2536 / ratetol=1.0 / qcomp=0.65 / qpmin=0 / qpmax=69 / qpstep=4 / cplxblur=20.0 / qblur=0.5 / ip_ratio=1.40 / pb_ratio=1.30 / aq=1:1.00
Язык : English
Default : Да
Forced : НетАудио
Идентификатор : 2
Формат : AC-3
Формат/Информация : Audio Coding 3
Расширение режима : CM (complete main)
Параметр Endianness формата : Big
Идентификатор кодека : A_AC3
Продолжительность : 1 ч. 31 м.
Вид битрейта : Постоянный
Битрейт : 448 Кбит/сек
Каналы : 6 каналов
Расположение каналов : Front: L C R, Side: L R, LFE
Частота : 48,0 КГц
Частота кадров : 31,250 кадров/сек (1536 spf)
Метод сжатия : С потерями
Размер потока : 293 Мбайт (15%)
Заголовок : AC3, 5.1, 448 Kbps - DVO
Язык : Russian
Default : Да
Forced : НетМеню
00:00:00.000 : en:00:00:00.000
00:10:06.898 : en:00:10:06.898
00:15:21.587 : en:00:15:21.587
00:23:42.588 : en:00:23:42.588
00:31:02.069 : en:00:31:02.069
00:38:47.200 : en:00:38:47.200
00:47:03.404 : en:00:47:03.404
00:53:40.134 : en:00:53:40.134
01:02:42.509 : en:01:02:42.509
01:08:57.592 : en:01:08:57.592
01:12:30.763 : en:01:12:30.763
01:20:03.007 : en:01:20:03.007

Скриншот c названием фильма

Скриншоты

-Трейлер
Яндекс.Метрика
Рейтинг@Mail.ru