Копы в глубоком запасе / The Other Guys (Адам МакКей / Adam McKay) [2010 г., боевик, комедия, BDRip-AVC, 720p] Dub [Пифагор 2010 / Лицензия] + Sub (Rus)

 

Создавать темы 20-Июл-2016 03:20

-Копы в глубоком запасе / The Other Guys-- Производство: США, Columbia Pictures, Gary Sanchez Productions, Mosaic Media Group, Relativity Media, ...
Год выпуска: 2010 г.
Жанр: боевик, комедия
Продолжительность: 01:56:14Мировая премьера: 2 августа 2010
Российская премьера: 30 сентября 2010, «WDSSPR»
Дата выхода DVD: 28 октября 2010, «Columbia/Sony»
Дата выхода Blu-Ray: 16 декабря 2010, «Columbia/Sony»Перевод: Профессиональный (полное дублирование) [Пифагор 2010 / Лицензия]
Режиссер: Адам МакКей / Adam McKay-В ролях: Уилл Феррелл, Марк Уолберг, Ева Мендес, Майкл Китон, Роб Риггл, Рэй Стивенсон, Стив Куган, Дэймон Уайанс мл., Сэмюэл Л. Джексон, Дуэйн Джонсон-Описание: Нью-Йоркские детективы Аллен Гэмбл и Терри Хойтз ведут полицейскую бухгалтерию. Гэмблу такая работа в радость, Хойтзу — наказание. Когда напарникам представится шанс выйти из тени — прийти на помощь своим кумирам, детективам Дэнсону и Манцетти — станет ясно, что в бухгалтерию Гэмбла и Хойтза сослали не зря…-
Качество видео: BDRip-AVC
Контейнер: MKV
Стандарт разрешения: 720p
Видео кодек: MPEG4 AVC
Аудио кодек: AC3
Видео: AVC, 1280x534 (2.40:1) at 23.976 fps, AVC at 3993 kbps avg, 0.244 bit/pixel
Аудио: Russian: 48 kHz; AC3 5.1; 640.00 kbps avg
Cубтитры: русские
Формат субтитров: softsub (SRT)
Доп. информация о субтитрах: включаемые

Доп. информация

Уезжая из Лас-Вегаса, Аллен говорит Терри, что «втянулся» в покер и другие азартные игры. Фамилия персонажа — Гембл (gamble), «говорящая фамилия», поскольку «to gamble» в английском означает — «играть в азартные игры».
Персонажа Майкла Китона назвали в честь известного спортивного менеджера Джина Мауча, под руководством которого бейсбольная команда California Angels успешно выступала в чемпионатах 1982-1986 годов.
На баскетбольном матче можно заметить сидящую рядом с героем Феррелла Брук Шилдс. Сценарист фильма Крис Хенчи — муж Брук.

Награды

Жорж, 2011 год
Номинации (1):
Лучшая зарубежная комедия

Media Info

Oбщее
Уникальный идентификатор : 246091359837201910236809251673851638191 (0xB92378CE36403AA0A8BD343B77C131AF)
Полное имя : C:\герои 7\Копы в глубоком запасе\Kopy v glubokom zapase.2010.720p.BDRip-AVC.[pirat.ca].mkv
Формат : Matroska
Версия формата : Version 2
Размер файла : 3,84 Гбайт
Продолжительность : 1 ч. 56 м.
Общий поток : 4727 Кбит/сек
Дата кодирования : UTC 2016-07-19 18:37:17
Программа кодирования : mkvmerge v5.3.0 ('I could have danced') built on Feb 9 2012 10:38:07
Библиотека кодирования : libebml v1.2.3 + libmatroska v1.3.0
Обложка : Yes
Attachments : cover.jpgВидео
Идентификатор : 1
Формат : AVC
Формат/Информация : Advanced Video Codec
Профиль формата : [email protected]/* */
Параметр CABAC формата : Да
Параметр ReFrames формата : 9 кадров
Идентификатор кодека : V_MPEG4/ISO/AVC
Продолжительность : 1 ч. 56 м.
Битрейт : 3993 Кбит/сек
Ширина : 1280 пикселей
Высота : 534 пикселя
Соотношение сторон : 2,40:1
Режим частоты кадров : Постоянный
Частота кадров : 23,976 (24000/1001) кадра/сек
Цветовое пространство : YUV
Субдискретизация насыщенности : 4:2:0
Битовая глубина : 8 бит
Тип развёртки : Прогрессивная
Бит/(Пиксели*Кадры) : 0.244
Размер потока : 3,24 Гбайт (84%)
Библиотека кодирования : x264 core 125 r2208 d9d2288
Настройки программы : cabac=1 / ref=9 / deblock=1:-1:-1 / analyse=0x3:0x133 / me=umh / subme=11 / psy=1 / psy_rd=1.00:0.00 / mixed_ref=1 / me_range=32 / chroma_me=1 / trellis=2 / 8x8dct=1 / cqm=0 / deadzone=21,11 / fast_pskip=0 / chroma_qp_offset=-2 / threads=12 / lookahead_threads=2 / sliced_threads=0 / nr=0 / decimate=1 / interlaced=0 / bluray_compat=0 / constrained_intra=0 / bframes=8 / b_pyramid=2 / b_adapt=2 / b_bias=0 / direct=1 / weightb=1 / open_gop=0 / weightp=2 / keyint=250 / keyint_min=23 / scenecut=40 / intra_refresh=0 / rc=crf / mbtree=0 / crf=20.0 / qcomp=0.60 / qpmin=0 / qpmax=69 / qpstep=4 / ip_ratio=1.10 / pb_ratio=1.10 / aq=1:1.00
Язык : English
Default : Да
Forced : НетАудио
Идентификатор : 2
Формат : AC-3
Формат/Информация : Audio Coding 3
Расширение режима : CM (complete main)
Параметр Endianness формата : Big
Идентификатор кодека : A_AC3
Продолжительность : 1 ч. 56 м.
Вид битрейта : Постоянный
Битрейт : 640 Кбит/сек
Каналы : 6 каналов
Расположение каналов : Front: L C R, Side: L R, LFE
Частота : 48,0 КГц
Частота кадров : 31,250 кадров/сек (1536 spf)
Метод сжатия : С потерями
Размер потока : 532 Мбайт (14%)
Язык : Russian
Default : Да
Forced : ДаТекст
Идентификатор : 3
Формат : UTF-8
Идентификатор кодека : S_TEXT/UTF8
Идентификатор кодека/Информация : UTF-8 Plain Text
Заголовок : Full
Язык : Russian
Default : Нет
Forced : НетМеню
00:00:00.000 : en:00:00:00.000
00:09:15.805 : en:00:09:15.805
00:13:23.010 : en:00:13:23.010
00:19:10.065 : en:00:19:10.065
00:26:17.659 : en:00:26:17.659
00:31:20.253 : en:00:31:20.253
00:36:32.231 : en:00:36:32.231
00:42:51.235 : en:00:42:51.235
00:50:15.971 : en:00:50:15.971
00:57:32.282 : en:00:57:32.282
01:03:22.089 : en:01:03:22.089
01:14:31.008 : en:01:14:31.008
01:22:22.061 : en:01:22:22.061
01:29:38.831 : en:01:29:38.831
01:36:21.984 : en:01:36:21.984
01:42:41.988 : en:01:42:41.988

Скриншот c названием фильма

Скриншоты

-Трейлер
Яндекс.Метрика
Рейтинг@Mail.ru