Люди Икс: Апокалипсис / X-Men: Apocalypse (2016) WEBRip 720р | D | Line

 

Создавать темы 19-Июл-2016 22:14

Люди Икс: Апокалипсис / X-Men: Apocalypse
Страна: США
Производство: 20th Century Fox Film Corporation, Marvel Entertainment, TSG Entertainment, Bad Hat Harry Productions
Год выпуска: 2016
Жанр: фантастика, фэнтези, боевик, приключения
Продолжительность: 02:23:35
Режиссер: Брайан Сингер
Авторы сценария: Саймон Кинберг, Брайан Сингер, Майкл Догерти
В ролях: Джеймс МакЭвой, Майкл Фассбендер, Дженнифер Лоуренс, Николас Холт, Оскар Айзек, Роуз Бирн, Эван Питерс, Джош Хелман
Описание: События «Дней Минувшего Будущего» оказали колоссальное влияние на мир, где мутанты и люди борются за свое место под Солнцем. В это нелегкое время Людям Икс предстоит столкнуться со своим самым опасным противником — древним мутантом Апокалипсисом, существом, схватка с которым может стать последней не только для мутантов, но и в принципе для всего человечества. В поисках способа победы над неуязвимым и бессмертным монстром Людям Икс предстоит узнать больше о происхождении своего вида. Но Апокалипсис неимоверно силен, и вероятность победы все уменьшается, ведь он твердо убежден, что только сильнейшие имеют право на выживание…

Перевод: Профессиональный (полное дублирование) | чистый звук
Субтитры: китайские (вшитые)-Качество: WEBRip 720р
Формат: МКV
Видео кодек: AVC
Аудио кодек: АС3
Видео: 1280x720 (16:9), 29.970 fps, MPEG-4 AVC ~2 725 kbps avg
Аудио №1: 48.0 kHz, AC3 Dolby Digital, 2/0 (L,R) ch, ~192 kbps | RUS
Аудио №2: 44.1 kHz, AC3 Dolby Digital, 2/0 (L,R) ch, ~192 kbps | ENG
Дата премьеры (мир): 9 мая 2016
Дата премьеры (РФ): 19 мая 2016, «Двадцатый Век Фокс СНГ»

Media Info

[b]General[/b]
Unique ID                                : 214232872940566559820987346732616973324 (0xA12BC0213744CB4F906B40846576FC0C)
Название                            : X-LuDi.Apocalypse.2O16.D.WEBRip.72OP_KOSHARA.mkv
Формат                                   : Matroska
Формат version                           : Version 2
Размер файла                                : 3.18 GiB
Длительность                                 : 2h 23mn
Общий Битрейт                         : 3 172 Kbps
Encoded date                             : UTC 2016-07-19 08:32:09
Создано приложением                      : mkvmerge v8.3.0 ('Over the Horizon') 64bit
Writing library                          : libebml v1.3.1 + libmatroska v1.4.2
Video
ID                                       : 1
Формат                                   : AVC
Формат/Info                              : Advanced Video Кодек
Формат profile                           : [email protected]
Формат настройки, CABAC                   : No
Формат настройки, ReFrames                : 1 frame
Кодек ID                                 : V_MPEG4/ISO/AVC
Длительность                                 : 2h 23mn
Битрейт                                 : 2 725 Kbps
Width                                    : 1 280 пикселей
Высота                                   : 720 пикселей
Соотношение кадра                     : 16:9
Частота кадров mode                          : Variable
Частота кадров                               : 29.970 fps
Цветопередача                              : YUV
Chroma subsampling                       : 4:2:0
Разрядность                                : 8 bits
Тип сканирования                                : Progressive
Bits/(Pixel*Frame)                       : 0.099
Размер потока                              : 2.73 GiB (86%)
Default                                  : Yes
Forced                                   : No
Audio #1
ID                                       : 2
Формат                                   : AC-3
Формат/Info                              : Audio Coding 3
Расширение режима                           : CM (complete main)
Кодек ID                                 : A_AC3
Длительность                                 : 2h 23mn
Битрейт mode                            : Constant
Битрейт                                 : 192 Kbps
Channel(s)                               : 2 канала
Channel positions                        : Front: L R
Частота                            : 48.0 KHz
Разрядность                                : 16 bits
Режим сжатия                         : Lossy
Размер потока                              : 197 MiB (6%)
Язык                                 : Russian
Default                                  : Yes
Forced                                   : No
Audio #2
ID                                       : 3
Формат                                   : AC-3
Формат/Info                              : Audio Coding 3
Расширение режима                           : CM (complete main)
Кодек ID                                 : A_AC3
Длительность                                 : 2h 23mn
Битрейт mode                            : Constant
Битрейт                                 : 192 Kbps
Channel(s)                               : 2 канала
Channel positions                        : Front: L R
Частота                            : 44.1 KHz
Разрядность                                : 16 bits
Режим сжатия                         : Lossy
Размер потока                              : 197 MiB (6%)
Язык                                 : English
Default                                  : No
Forced                                   : No

Скриншоты:

Яндекс.Метрика
Рейтинг@Mail.ru