Лес призраков / The Forest (Джейсон Зада / Jason Zada) [2016 г., ужасы, BDRip-AVC] Dub [МОСФИЛЬМ-мастер]

 

Создавать темы 19-Июл-2016 03:49

-Лес призраков / The Forest-- Производство: США, Lava Bear Films, Millennium FX Ltd., Temprimental Films
Год выпуска: 2016 г.
Жанр: ужасы
Продолжительность: 01:33:17Мировая премьера: 7 января 2016
Российская премьера: 14 января 2016, «Парадиз»
Перевод: Профессиональный (полное дублирование) [МОСФИЛЬМ-мастер по заказу «Парадиз»]
Режиссер: Джейсон Зада / Jason Zada-В ролях: Натали Дормер (Sara / Jess Price), Оуэн Мэкен (Rob), Стефани Вогт (Valerie), Осаму Танпопо (Homeless Man), Ясуо Тобисима (Sushi Chef), Ибуки Канеда (Mei (Schoolgirl)), Акико Ивасе (Head Teacher), Кикуо Ичикава (Businessman), Норико Сакура (Mayumi), Йозеф Аоки (Visitor Center Morgue Man), Юхо Ямасита (Sakura), Тейлор Кинни (Aiden)
Дублёры: Варвара Чабан, Евгения Ваган, Андрей Вальц, Екатерина Семенова, Дина Бобылёва, ...-Описание: Юная американка Сара отправляется на поиски сестры-близняшки, которая таинственным образом исчезла на японском острове Хонсю. Поиски приводят к подножью горы Фудзи, в таинственный лес, который пользуется дурной славой. Сара не подозревала, что она вступает в мрачный мир призраков, злых и измученных душ, которые охотятся на любого, кто блуждает по их мрачному лесу…-
Качество видео: BDRip-AVC
Контейнер: MKV
Видео кодек: MPEG4 AVC
Аудио кодек: AC3
Видео: AVC, 1008x544 (1.853), 1857 kbps, 23,976 fps, 0,141 bpp
Аудио: русский / AC3 / 5.1 / 48 kHz / 384 kbps / 16 bit
Cубтитры: отсутствуют

Доп. информация

Как утверждает испанский комедийный актёр Хуан Торрес, сюжет, название и общий настрой фильма очень напоминают «El bosque de los suicidas» («Лес самоубийц»), книгу комиксов, которую он вместе с Габриэльем Эрнандесом издал в 2011 году.
В перерыве между съёмками Натали Дормер попросила своего водителя-японца отвезти её в «Лес самоубийц». Она отошла от тропы на несколько шагов, чтобы сделать снимок, а японец сходить с тропы отказался категорически.
Режиссёрский дебют Джейсона Зада в игровом кино.
Аокигахара, известный также под названиями «Лес самоубийц» и «Море деревьев», представляет собой лесной массив площадью 35 квадратных километров у северо-западного подножья горы Фудзи в Японии. Этот лес традиционно считается местом обитания демонов и призраков и пользуется популярностью у японцев, решивших свести счёты с жизнью. При входе в лес установлен плакат с просьбой помышляющим о том, чтобы покончить с собой, обратиться в Ассоциацию по предотвращению самоубийств. Это место уже послужило темой двух фильмов — «Shawn4Ever» (2012) и «Море деревьев» (2015). Оба фильма вышли на экраны до выхода «Леса призраков».
Дебют Юкиёси Одзавы в англоязычном кинематографе.

Рецензия

Не ходите дети по лесу гулятьПошла на фильм, не смотрев трейлер, не зная о чем он, но я настолько люблю ужастики и давно не видела ничего качественного, что было все равно что там за кино такое. В общем, мои надежды оправдались по полной. Фильм вообще не набит клише, даже БУ-МОМЕНТЫ и те, удивляют. Признаюсь честно, пару раз орала на весь зал, как девчонкаСобственно, сама идея фильма не нова, про этот лес я и фильмы видела, и слышала часто. Но черт возьми, мне настолько понравилось кино, что я еще раз бы сходила. Возможно, дело в том, что я люблю близнецов, может быть, потому что смотрела в оригинале, или просто напросто потому что на фоне всего остального г-на что приходилось смотреть в кино в последнее время этот фильм показался хорош.Из минусов только что нет какого-то крайне не предсказуемого финала, и на место типа, что помогал главной героине можно было выбрать кого-то куда более сладкого.10 из 10

Media Info

Общее
Уникальный идентификатор : 216318138509042345794883176905833112152 (0xA2BD5BA8F5A05511A885A9DDD5CAE258)
Полное имя : C:\герои 7\Лес призраков\Les Prizrakov.2016.BDRip-AVC.[pirat.ca].mkv
Формат : Matroska
Версия формата : Version 2
Размер файла : 1,45 Гбайт
Продолжительность : 1 ч. 33 м.
Общий поток : 2232 Кбит/сек
Название фильма : The Forest (2016)
Дата кодирования : UTC 2016-07-18 12:19:55
Программа кодирования : mkvmerge v5.3.0 ('I could have danced') built on Feb 9 2012 10:38:07
Библиотека кодирования : libebml v1.2.3 + libmatroska v1.3.0Видео
Идентификатор : 1
Формат : AVC
Формат/Информация : Advanced Video Codec
Профиль формата : [email protected]/* */
Параметр CABAC формата : Да
Параметр ReFrames формата : 12 кадров
Идентификатор кодека : V_MPEG4/ISO/AVC
Продолжительность : 1 ч. 33 м.
Битрейт : 1857 Кбит/сек
Ширина : 1008 пикселей
Высота : 544 пикселя
Соотношение сторон : 1,85:1
Режим частоты кадров : Постоянный
Частота кадров : 23,976 (24000/1001) кадра/сек
Цветовое пространство : YUV
Субдискретизация насыщенности : 4:2:0
Битовая глубина : 8 бит
Тип развёртки : Прогрессивная
Бит/(Пиксели*Кадры) : 0.141
Размер потока : 1,18 Гбайт (81%)
Библиотека кодирования : x264 core 148 r2665M a01e339
Настройки программы : cabac=1 / ref=12 / deblock=1:-2:-2 / analyse=0x3:0x133 / me=umh / subme=11 / psy=1 / psy_rd=0.94:0.00 / mixed_ref=1 / me_range=48 / chroma_me=1 / trellis=2 / 8x8dct=1 / cqm=0 / deadzone=21,11 / fast_pskip=0 / chroma_qp_offset=-2 / threads=9 / lookahead_threads=2 / sliced_threads=0 / nr=0 / decimate=1 / interlaced=0 / bluray_compat=0 / constrained_intra=0 / bframes=13 / b_pyramid=2 / b_adapt=2 / b_bias=0 / direct=3 / weightb=1 / open_gop=0 / weightp=2 / keyint=240 / keyint_min=23 / scenecut=40 / intra_refresh=0 / rc=2pass / mbtree=0 / bitrate=1857 / ratetol=1.0 / qcomp=0.70 / qpmin=0 / qpmax=69 / qpstep=4 / cplxblur=20.0 / qblur=0.5 / ip_ratio=1.40 / pb_ratio=1.30 / aq=1:0.85
Язык : English
Default : Да
Forced : НетАудио
Идентификатор : 2
Формат : AC-3
Формат/Информация : Audio Coding 3
Расширение режима : CM (complete main)
Параметр Endianness формата : Big
Идентификатор кодека : A_AC3
Продолжительность : 1 ч. 33 м.
Вид битрейта : Постоянный
Битрейт : 384 Кбит/сек
Каналы : 6 каналов
Расположение каналов : Front: L C R, Side: L R, LFE
Частота : 48,0 КГц
Частота кадров : 31,250 кадров/сек (1536 spf)
Метод сжатия : С потерями
Размер потока : 256 Мбайт (17%)
Заголовок : Dub | DD 5.1 @ 384 kbps
Язык : Russian
Default : Да
Forced : НетМеню
00:00:00.000 : :(01)00:00:00:000
00:05:31.997 : :(02)00:05:31:997
00:09:30.235 : :(03)00:09:30:235
00:15:37.352 : :(04)00:15:37:352
00:19:23.953 : :(05)00:19:23:953
00:23:38.375 : :(06)00:23:38:375
00:28:57.192 : :(07)00:28:57:192
00:34:14.969 : :(08)00:34:14:969
00:36:58.257 : :(09)00:36:58:257
00:40:25.672 : :(10)00:40:25:672
00:43:56.132 : :(11)00:43:56:132
00:48:47.632 : :(12)00:48:47:632
00:53:20.487 : :(13)00:53:20:487
00:59:39.117 : :(14)00:59:39:117
01:02:35.083 : :(15)01:02:35:083
01:07:20.161 : :(16)01:07:20:161
01:11:33.328 : :(17)01:11:33:329
01:16:26.997 : :(18)01:16:26:997
01:21:35.055 : :(19)01:21:35:055
01:26:54.332 : :(20)01:26:54:332
01:33:17.173 : :(21)01:33:17:173

Скриншот c названием фильма

Скриншоты

-Трейлер
Яндекс.Метрика
Рейтинг@Mail.ru