Другие 48 часов / Another 48 Hrs. (Уолтер Хилл / Walter Hill) [1990 г., Комедийный боевик, HDRip] MVO [СТС] + DVO [Премьер Видео Фильм]

 

Создавать темы 19-Июл-2016 03:34

-Другие 48 часов / Another 48 Hrs.-- Производство: США, Eddie Murphy Productions, Lawrence Gordon Productions, Paramount Pictures
Год выпуска: 1990 г.
Жанр: Комедийный боевик
Продолжительность: 01:31:23Мировая премьера: 8 июня 1990
Перевод: Профессиональный (многоголосый, закадровый) [СТС]
Перевод 2: Профессиональный (двухголосый, закадровый) [Премьер Видео Фильм]
Режиссер: Уолтер Хилл / Walter Hill-В ролях: Эдди Мёрфи, Ник Нолти, Брайон Джеймс, Кевин Тай, Эд О’Росс, Дэвид Энтони Маршалл, Эндрю Дивофф, Берни Кейси, Брент Дженнингс, Тед Маркленд-Описание: Толпа охотится за головой Регги. Автобус, в котором он едет, переворачивается 17 раз. Его дорогой Порше превращается в груду металла. Подонки в баре еще не знают, как опасно раздражать Регги. А ночь еще только начинается. За эти 48 часов Регги и Джек перевернут весь Сан-Франциско в погоне за неуловимым наркобароном. Мальчики вернулись в город… заварушка на улицах начинается.-
Качество видео: HDRip
Контейнер: AVI
Видео кодек: XviD
Аудио кодек: AC3
Видео: 720x400 (1.80:1), 25 fps, XviD build 47 ~1895 kbps avg, 0.26 bit/pixel
Аудио: 48 kHz, AC3 Dolby Digital, 2/0 (L,R) ch, ~192 kbps
Аудио #2: 48 kHz, AC3 Dolby Digital, 2/0 (L,R) ch, ~192 kbps
Cубтитры: отсутствуют

Рецензия

Вторая часть культового и эталонного комедийного боевика «48 часов» появилась лишь спустя 8 лет после выхода оригинала. За это время утекло много воды — Нолти постарел, в жанре боевика появилось множество великолепных фильмов, в том числе и подражающих фильму Хилла, сам Хилл снял несколько отличных фильмов, а Эдди Мерфи за эти 8 лет, прошедшие с момента его шикарного дебюта, превратился в самого высокооплачиваемого, известного и любимого комика в мире.Второй фильм, однако, получился не хуже, а может, даже лучше первого, именно потому, что теперь ведущие позиции в нем явно принадлежали Реджи Хэммонду в исполнении Мерфи, герой Нолти стал фигурой второстепенной, поэтому фильм получил больший комический уклон, нежели первый. Однако, нам это только на руку — после фильма остается море положительных эмоций. Несмотря на то, что сюжет практически один в один (включая начало и концовку) повторяет сюжет первой части, снято все очень классно — динамично, эффектно, с юмором.С юмором тут вообще все отлично — если смех вправду продевает жизнь, то этот фильм можно регулярно пересматривать для оздоровительной профилактики — перепалки между героями Мерфи и Нолти, а также постоянные импровизации Мерфи со жлобами в барах, полицейскими, бывшими дружками, девками — просто брызжут остроумием и задором. Мерфи заметно возмужал, замамтерел, стал настоящим профи — практически все его шутки попадают в цель.Долговязый, нескладный Нолти после 8 лет беспробудного пьянства выглядит на фоне обаятельного и бодрого Мерфи уже несколько потрепанным и сильно ему проигрывает. В отличие от первого фильма, здесь их дуэт неравнозначен — Мерфи явный лидер всего фильма. Однако, харизма и хриплый голос все-таки делают свое дело и Нолти по-прежнему воспринимается настоящим «крутым» копом.Конечно, есть в фильме яркие, харизматичные злодеи-психи, красивые девки, погони, драки, стрельба, разбитые окна и продажные полицейские. Без этого нельзя. Но с такой командой и в руках Уолтера Хилла фильм не стал слабой тенью оригинала и коммерческим повторением пройденного — он стал вполне самостоятельным и отличным фильмом, идеальным в своем жанре, с великолепной парочкой Мерфи-Нолти, котрая любое дело превратит в настоящий цирковой аттракцион. Особенно Эдди Меерфи. Реджи Хэммонд — одна из самых ярких и запоминающихся ролей великого комика.

Media Info

oбщее
Полное имя : C:\герои 7\48 часов\Drudie 48 CHasov.1990.BDRip.[pirat.ca].avi
Формат : AVI
Формат/Информация : Audio Video Interleave
Размер файла : 1,47 Гбайт
Продолжительность : 1 ч. 31 м.
Общий поток : 2295 Кбит/сек
Название фильма : Drudie 48 CHasov.1990.BDRip.[pirat.ca]
Программа кодирования : VirtualDubMod 1.5.10.2 (build 2540/release)Видео
Идентификатор : 0
Формат : MPEG-4 Visual
Профиль формата : Advanced [email protected]/* */
Параметр BVOP формата : 1
Параметр QPel формата : Нет
Параметр GMC формата : Без точки перехода
Параметр матрицы формата : Default (MPEG)
Идентификатор кодека : XVID
Идентификатор кодека/Подсказка : XviD
Продолжительность : 1 ч. 31 м.
Битрейт : 1897 Кбит/сек
Ширина : 720 пикселей
Высота : 400 пикселей
Соотношение сторон : 16:9
Частота кадров : 25,000 кадров/сек
Цветовое пространство : YUV
Субдискретизация насыщенности : 4:2:0
Битовая глубина : 8 бит
Тип развёртки : Прогрессивная
Метод сжатия : С потерями
Бит/(Пиксели*Кадры) : 0.263
Размер потока : 1,21 Гбайт (83%)
Библиотека кодирования : XviD 1.2.0.dev47 (UTC 2006-11-01)Аудио #1
Идентификатор : 1
Формат : AC-3
Формат/Информация : Audio Coding 3
Расширение режима : CM (complete main)
Параметр Endianness формата : Big
Идентификатор кодека : 2000
Продолжительность : 1 ч. 31 м.
Вид битрейта : Постоянный
Битрейт : 192 Кбит/сек
Каналы : 2 канала
Расположение каналов : Front: L R
Частота : 48,0 КГц
Частота кадров : 31,250 кадров/сек (1536 spf)
Метод сжатия : С потерями
Размер потока : 126 Мбайт (8%)
Выравнивание : Разделение по промежуткам
Продолжительность промежутка : 40 мс. (1,00 видеокадр)
Время предзагрузки промежутка : 500 мс.Аудио #2
Идентификатор : 2
Формат : AC-3
Формат/Информация : Audio Coding 3
Расширение режима : CM (complete main)
Параметр Endianness формата : Big
Идентификатор кодека : 2000
Продолжительность : 1 ч. 31 м.
Вид битрейта : Постоянный
Битрейт : 192 Кбит/сек
Каналы : 2 канала
Расположение каналов : Front: L R
Частота : 48,0 КГц
Частота кадров : 31,250 кадров/сек (1536 spf)
Метод сжатия : С потерями
Размер потока : 126 Мбайт (8%)
Выравнивание : Разделение по промежуткам
Продолжительность промежутка : 40 мс. (1,00 видеокадр)
Время предзагрузки промежутка : 500 мс.

Скриншот c названием фильма

Скриншоты

-Трейлер
Яндекс.Метрика
Рейтинг@Mail.ru