Хардкор / Hardcore Henry (2015) BDRip [H.264/1080p-LQ]

 

Создавать темы 17-Июл-2016 00:46

- Хардкор / Hardcore Henry (2015) BDRip - Хардкор / Hardcore Henry (2015) BDRip - Производство: Россия, США
Жанр: Боевик, Фантастика
Режиссер: Илья Найшуллер
Актеры: Шарлто Копли, Данила Козловский, Хейли Беннетт, Андрей Дементьев, Сергей Шнуров, Кирилл Серебренников, Александр Паль, Светлана Устинова, Даша Чаруша, Равшана Куркова
Описание:
Прекрасная супружеская жизнь рядом с очаровательной Эстель – это все, что помнит главный герой после того, как просыпается в неизвестной научной лаборатории, где в чувства его приводит собственная жена. Но супруга тут же оказывается похищенной, и ничего не понимающий главный герой Генри уже вынужден преследовать монстра Акана, который украл его жену.
Теперь ради достижения цели Генри готов на многое. Но позже оказывается, что не только он один является врагом для Акана. У подозрительного Джимми тоже свои планы на злодея. Теперь вместе ребятам предстоит спасти Эстель и предотвратить попытку задействовать армию киборгов в борьбе с человечеством. Им предстоит бороться с самим воплощением зла.-Возраст: 18+ (зрителям, достигшим 18 лет. запрещено для детей)
Рейтинг MPAA: R (лицам до 17 лет обязательно присутствие взрослого)
Релиз от: Пират82
Продолжительность: 01:36:50
Качество видео: BDRip
Перевод: Дублированный (iTunes Russia)
Язык субтитров: Английский (SDH)
Видео: AVC/H.264, 1920x1080, ~5 000 Kbps
Аудио: AC3, 6 ch, 384 Kbps

Mediainfo:

General
Unique ID                   : 219643235912757568925976531909907115994 (0xA53DBF9E8663F8F7B7F703413E2CEFDA)
Complete name               : C:\777\Hardcore.Henry.2015.BDRip.1080p.mkv
Format                      : Matroska
Format version              : Version 4 / Version 2
File size                   : 3.63 GiB
Duration                    : 1h 36mn
Overall bit rate            : 5 362 Kbps
Encoded date                : UTC 2016-07-14 18:17:58
Writing application         : Lavf57.37.100
Writing library             : Lavf57.37.100 / Lavf57.37.100
Video
ID                          : 1
Format                      : AVC
Format/Info                 : Advanced Video Codec
Format profile              : [url=mailto:[email protected]][email protected][/url]
Format settings, CABAC      : No
Format settings, ReFrames   : 2 frames
Codec ID                    : V_MPEG4/ISO/AVC
Duration                    : 1h 36mn
Bit rate                    : 5 000 Kbps
Width                       : 1 920 pixels
Height                      : 1 080 pixels
Display aspect ratio        : 16:9
Frame rate mode             : Constant
Frame rate                  : 23.976 (24000/1001) fps
Color space                 : YUV
Chroma subsampling          : 4:2:0
Bit depth                   : 8 bits
Scan type                   : Progressive
Bits/(Pixel*Frame)          : 0.101
Stream size                 : 3.30 GiB (91%)
Writing library             : x264 core 148 r2643
Encoding settings           : cabac=0 / ref=2 / deblock=1:3:2 / analyse=0x3:0x113 / me=hex / subme=7 / psy=1 / psy_rd=1.00:0.00 / mixed_ref=0 / me_range=16 / chroma_me=1 / trellis=2 / 8x8dct=1 / cqm=0 / deadzone=21,11 / fast_pskip=1 / chroma_qp_offset=-2 / threads=12 / lookahead_threads=2 / sliced_threads=0 / nr=0 / decimate=1 / interlaced=0 / bluray_compat=0 / constrained_intra=0 / bframes=2 / b_pyramid=0 / b_adapt=2 / b_bias=0 / direct=3 / weightb=0 / open_gop=0 / weightp=2 / keyint=239 / keyint_min=23 / scenecut=40 / intra_refresh=0 / rc_lookahead=40 / rc=2pass / mbtree=1 / bitrate=5000 / ratetol=1.0 / qcomp=0.60 / qpmin=10 / qpmax=69 / qpstep=4 / cplxblur=20.0 / qblur=0.5 / vbv_maxrate=5300 / vbv_bufsize=24000 / nal_hrd=none / filler=0 / ip_ratio=1.40 / aq=3:1.30
Language                    : English
Default                     : Yes
Forced                      : No
DURATION                    : 01:36:50.805000000
Audio
ID                          : 2
Format                      : AC-3
Format/Info                 : Audio Coding 3
Mode extension              : CM (complete main)
Format settings, Endianness : Big
Codec ID                    : A_AC3
Duration                    : 1h 36mn
Bit rate mode               : Constant
Bit rate                    : 384 Kbps
Channel(s)                  : 6 channels
Channel positions           : Front: L C R, Side: L R, LFE
Sampling rate               : 48.0 KHz
Frame rate                  : 31.250 fps (1536 spf)
Compression mode            : Lossy
Stream size                 : 266 MiB (7%)
Language                    : Russian
Default                     : Yes
Forced                      : No
DURATION                    : 01:36:45.920000000
Text #1
ID                          : 3
Format                      : UTF-8
Codec ID                    : S_TEXT/UTF8
Codec ID/Info               : UTF-8 Plain Text
Language                    : English
Default                     : No
Forced                      : No
DURATION                    : 01:33:53.150000000
Text #2
ID                          : 4
Format                      : UTF-8
Codec ID                    : S_TEXT/UTF8
Codec ID/Info               : UTF-8 Plain Text
Language                    : English
Default                     : No
Forced                      : No
DURATION                    : 01:33:55.276000000
Menu
00:00:00.000                : :00:00:00.000
00:04:04.494                : :00:04:04.494
00:08:36.641                : :00:08:36.641
00:14:12.935                : :00:14:12.935
00:18:45.333                : :00:18:45.333
00:22:38.816                : :00:22:38.816
00:26:12.237                : :00:26:12.237
00:30:05.345                : :00:30:05.345
00:34:30.193                : :00:34:30.193
00:37:44.429                : :00:37:44.429
00:42:19.537                : :00:42:19.537
00:47:05.406                : :00:47:05.406
00:52:51.085                : :00:52:51.085
00:56:00.482                : :00:56:00.482
01:03:47.824                : :01:03:47.824
01:11:23.988                : :01:11:23.988
01:15:54.884                : :01:15:54.884
01:22:04.670                : :01:22:04.670
01:24:10.045                : :01:24:10.045
01:29:31.116                : :01:29:31.116
Скриншоты:
-Время раздачи: с 21.00 до 6.00 (до появления первых 3-5 скачавших)
Яндекс.Метрика
Рейтинг@Mail.ru