Хардкор / Hardcore Henry (2015) HDRip

 

Создавать темы 16-Июл-2016 06:55

- Хардкор / Hardcore Henry (2015) HDRip «Сначала они сделали его опасным. Затем они заставили его сойти с ума»- Производство: Россия, США, Базелевс Продакшн, Robusto
Жанр: Боевик, Фантастика
Режиссер: Илья Найшуллер
Актеры: Шарлто Копли, Данила Козловский, Хейли Беннетт, Андрей Дементьев, Сергей Шнуров, Кирилл Серебренников, Александр Паль, Светлана Устинова, Даша Чаруша, Равшана Куркова,...
Описание:
Прекрасная супружеская жизнь рядом с очаровательной Эстель — это все, что помнит главный герой после того, как просыпается в неизвестной научной лаборатории, где в чувства его приводит собственная жена. Но супруга тут же оказывается похищенной, и ничего не понимающий главный герой Генри уже вынужден преследовать монстра Акана, который украл его жену.
Теперь ради достижения цели Генри готов на многое. Но позже оказывается, что не только он один является врагом для Акана. У подозрительного Джимми тоже свои планы на злодея. Теперь вместе ребятам предстоит спасти Эстель и предотвратить попытку задействовать армию киборгов в борьбе с человечеством. Им предстоит бороться с самим воплощением зла.-Возраст: 18+ (зрителям, достигшим 18 лет. запрещено для детей)
Рейтинг MPAA: R (лицам до 17 лет обязательно присутствие взрослого)
Дата мировой премьеры: 12 сентября 2015
Дата премьеры в России: 7 апреля 2016

Продолжительность: 01:36:50
Качество видео: HDRip
Перевод: Дублированный (iTunes)
Язык субтитров: Английский
Вид субтитров: Вшитые не отключаемые, в паре мест
Видео: XviD, 720x384, (1,85:1), 1 769 kbps, 23,976 fps
Аудио: AC3, 6 ch, 384 kbps - Русский

Mediainfo:

General
Complete name               : D:\Фильмы\Hardcore.Henry.2016.HDRip.1.46Gb.MegaPeer.avi
Format                      : AVI
Format/Info                 : Audio Video Interleave
File size                   : 1.46 GiB
Duration                    : 1 h 36 min
Overall bit rate            : 2 160 kb/s
Video
ID                          : 0
Format                      : MPEG-4 Visual
Format profile              : Advanced [email protected]
Format settings, BVOP       : 1
Format settings, QPel       : No
Format settings, GMC        : No warppoints
Format settings, Matrix     : Custom
Codec ID                    : XVID
Codec ID/Hint               : XviD
Duration                    : 1 h 36 min
Bit rate                    : 1 769 kb/s
Width                       : 720 pixels
Height                      : 384 pixels
Display aspect ratio        : 1.85:1
Frame rate                  : 23.976 (24000/1001) FPS
Color space                 : YUV
Chroma subsampling          : 4:2:0
Bit depth                   : 8 bits
Scan type                   : Progressive
Compression mode            : Lossy
Bits/(Pixel*Frame)          : 0.267
Stream size                 : 1.20 GiB (82%)
Writing library             : XviD 73
Audio
ID                          : 1
Format                      : AC-3
Format/Info                 : Audio Coding 3
Mode extension              : CM (complete main)
Format settings, Endianness : Big
Codec ID                    : 2000
Duration                    : 1 h 36 min
Bit rate mode               : Constant
Bit rate                    : 384 kb/s
Channel(s)                  : 6 channels
Channel positions           : Front: L C R, Side: L R, LFE
Sampling rate               : 48.0 kHz
Frame rate                  : 31.250 FPS (1536 spf)
Compression mode            : Lossy
Stream size                 : 266 MiB (18%)
Alignment                   : Aligned on interleaves
Interleave, duration        : 64  ms (1.53 video frames)
Interleave, preload duratio : 192  ms
Title                       : iTunes

Знаете ли вы, что...

• По словам Ильи Найшуллера, предложение от Тимура Бекмамбетова о сотрудничестве поступило к нему через социальную сеть.
• Несмотря на насыщенность фильма событиями, по сюжету, действие «Хардкора» занимает всего один день.
• Для съемок фильма использовалась камера «GoPro», получившая широкую популярность среди любителей экстремального отдыха. Специально для создания фильма была разработана уникальная технология стабилизации камеры – Adventure mask.
• Роль танкиста, которую сыграл Кирилл Серебренников, мог исполнить Дмитрий Пучков.
• На роль злодея долго не могли подобрать актера, в результате так и остановились на изначальной кандидатуре Данилы Козловского. Когда ему впервые предложили эту роль, он был занят в другом проекте. За несколько месяцев более подходящего актера не нашлось, и как только Данила освободился, сразу же согласился участвовать в проекте.
• Фильм стал развитием темы и стилистики видеоряда вышедшего весной 2013 года клипа на песню Bad Motherfucker инди-рок-группы Biting Elbows. Ролик быстро стал популярным, собрав за месяц более 23 миллионов просмотров на YouTube. На видео, снятое от первого лица, обратил внимание Тимур Бекмамбетов, который предложил автору ролика создать полнометражную ленту. Илья Найшуллер вначале отказался от этого предложения, но затем принял его и стал сценаристом и режиссёром «Хардкора».
• Кампания по сбору средств на съемки фильма проходила на краудфандинговом портале «Indiegogo» и завершилась 19 декабря 2014. Общий сбор от 2078 человек составил $254 954.
• Для изменения цвета глаз Данилы Козловского гримеры использовали линзы, которые были вдвое толще обычных и были окрашены вручную в голубой цвет.
Скриншоты:
Яндекс.Метрика
Рейтинг@Mail.ru