Уиджи: Доска Дьявола / Ouija (Стайлз Уайт / Stiles White) [2014 г., ужасы, BDRip-AVC, 1080p] Dub [BD EUR / Лицензия] + Sub (Rus)

 

Создавать темы 14-Июл-2016 03:40

-Уиджи: Доска Дьявола / Ouija-- Производство: США, Universal Pictures, ...
Год выпуска: 2014 г.
Жанр: ужасы
Продолжительность: 01:29:23Мировая премьера: 23 октября 2014
Российская премьера: 13 ноября 2014, «UPI»
Дата выхода DVD: 26 февраля 2015, «Двадцатый Век Фокс СНГ»
Дата выхода Blu-Ray: 26 февраля 2015, «Двадцатый Век Фокс СНГ»Перевод: Профессиональный (полное дублирование) [BD EUR / Лицензия]
Режиссер: Стайлз Уайт / Stiles White-В ролях: Оливия Кук, Ана Кото, Дарен Кагасофф, Бьянка А. Сантос, Дуглас Смит, Шелли Хенниг, Сьерра Хойерманн, Санни Мэй Эллисон, Лин Шэй, Клаудия Кац-Описание: Компания друзей вынуждена столкнуться с их самыми страшными кошмарами, после того, как пробуждает темные силы с помощью спиритической доски.-
Качество видео: BDRip-AVC
Контейнер: MKV
Стандарт разрешения: 1080p
Видео кодек: MPEG4 AVC
Аудио кодек: AC3
Видео: AVC/H.264, 1 920x800 (2.40:1), ~6 539 Kbps, 23.976 fps
Аудио: AC3, 6 ch, 48 kHz, 448 Kbps
Cубтитры: русские
Формат субтитров: softsub (SRT)
Доп. информация о субтитрах: включаемые

Доп. информация

На ранних стадиях работы над фильмом на должности режиссера был МакДжи.
По словам художника Мэри Джейн Форт, актеры и съемочная группа в перерывах между съемками ради смеха использовали Доску Уиджа, чтобы предсказать кассовые сборы фильма за первый уик-энд.
Доска Уиджа далеко не древняя, она была запатентована 28 мая 1890-го года.
Название «Ouija» — на самом деле произносится как «Уиджа», вопреки распространённому «Уиджи». Чарльз Кеннрад (Charles Kennard), основатель компании, производящей эти доски, заявил, что имя «Ouija» он узнал, спросив доску о том, как она сама хочет, чтобы ее называли.
Это первый фильм ужасов от Hasbro Studios ("детской студии").

Рецензия

Не пожелел!Уже в очередной раз смотрю фильм, не смотря на комментарии и тем более на рейтинг «Кинопоиск»Господа надутые кинокритики, ну не надо по сто раз каждому описывать сам фильм, это есть в трейлере к нему и в кратком описании.В целом фильм хороший, да не шедевр! Как говориться для дураков а мне понравился. Хоть всё банально и старо как мир, но не хуже других. Тем более не надо забывать о том, что данная картина снята и придумана в США, где эта «доска» весьма была популярна и стала уже героем многих ужасов. Как та обезьянка с тарелками Стивена Кинга. Да и сам жанр ужасов, настолько нас редко чем то радует, что фильм не плоха на общем фоне.Особым яростным негодующим приведу факты. При бюджете в 5 млн он собрал в мире 77 млн. Наверно есть над чем подумать?12+ от «Астрала»Майкл Бэй и Джейсон Блум не в коем случае не станут продюсерами провальных фильмов. Этот фильм — самый успешный осенний ужастик, с которым мне только довелось познакомиться. В этом фильме сочетаются самые лучшие элементы хоррора и спокойного напряжения, а ограничение в двенадцать лет совершенно не помеха смотреть фильм, ведь вы точно будете напуганы до смерти. Не думал я, что с рейтингов PG-13 можно сделать столь страшный фильм.Боится ли человек того, что близкие могут умереть совершенно в неожиданный для него момент? Это случается с героями в этой истории. Девушка погибает по неизвестным причинам. Но на самом деле не все так просто. Следствием смерти стала шарада каких-то духов, и друзья девушки хотят остановить череду страшных убийств, путем закрытия демонического портала. Для этого нужно узнать все секреты игры, и поверьте, их куда больше, чем можно вообразить.Это наверное и правда можно назвать самым страшным из тех фильмов ужасов, что выходили в этом году. Несомненно, он может быть не самым хорошим, но то, что я пугался больше десяти раз во время просмотра — это правда. Конечно не вот, чтобы закричать, но повздрагивать в кресле кинотеатра это кино меня все же заставило. Все за счет атмосферы, которая была подобрана для фильма. По-началу, все вроде бы спокойно, но все ужасы копятся «снежным комом».Стайлс Уайт, которому довелось поработать со «Шкатулкой проклятия», по истине создал здесь продукт для зрителей, которым хотелось очень сильно пощекотать себе нервы. А эту атмосферу успешно уловили молодые актеры, даже не имеющие большого опыта, и тем не менее, сумевшие донести смысл до зрителей, одной только мимикой поражая и завлекая все глубже и глубже в этот фильм. Иными же словами — вышло очень сильно.Успешным этот фильм назову само собой! Все о чем я мог только мечтать, когда смотрел «Проклятие Аннабель», и говорил, что там все шикарно, но мало страха, а тут и шикарно, и много «бу-моментов», и говорю этому фильму громкое «Да». Я советую всем, даже не любителям ужасов, ознакомиться с этой картиной, почувствовать ее атмосферу, музыку, визуальную составляющую, и понять, что это шаг в хорошую сторону в данном жанре.10 из 10

Media Info

Общее
Уникальный идентификатор : 235141058926433177563153081917419554035 (0xB0E6854996DE9266A423579A6BE004F3)
Полное имя : F:\Уиджи\Ouija.2014.1080p-LQ.BDRip-AVC.[pirat.ca].mkv
Формат : Matroska
Версия формата : Version 2
Размер файла : 4,37 Гбайт
Продолжительность : 1 ч. 29 м.
Общий поток : 7003 Кбит/сек
Дата кодирования : UTC 2016-07-13 02:15:02
Программа кодирования : mkvmerge v5.3.0 ('I could have danced') built on Feb 9 2012 10:38:07
Библиотека кодирования : libebml v1.2.3 + libmatroska v1.3.0Видео
Идентификатор : 1
Формат : AVC
Формат/Информация : Advanced Video Codec
Профиль формата : [email protected]/* */
Параметр CABAC формата : Да
Параметр ReFrames формата : 4 кадра
Идентификатор кодека : V_MPEG4/ISO/AVC
Продолжительность : 1 ч. 29 м.
Битрейт : 6539 Кбит/сек
Ширина : 1920 пикселей
Высота : 800 пикселей
Соотношение сторон : 2,40:1
Режим частоты кадров : Постоянный
Частота кадров : 23,976 (24000/1001) кадра/сек
Цветовое пространство : YUV
Субдискретизация насыщенности : 4:2:0
Битовая глубина : 8 бит
Тип развёртки : Прогрессивная
Бит/(Пиксели*Кадры) : 0.178
Размер потока : 4,01 Гбайт (92%)
Заголовок : Уиджи: Доска Дьявола - Ouija (2014)
Библиотека кодирования : x264 core 146 r2538 121396c
Настройки программы : cabac=1 / ref=4 / deblock=1:-1:-1 / analyse=0x3:0x113 / me=umh / subme=10 / psy=1 / psy_rd=1.00:0.00 / mixed_ref=1 / me_range=32 / chroma_me=1 / trellis=2 / 8x8dct=1 / cqm=0 / deadzone=21,11 / fast_pskip=0 / chroma_qp_offset=-2 / threads=3 / lookahead_threads=1 / sliced_threads=0 / nr=0 / decimate=1 / interlaced=0 / bluray_compat=0 / constrained_intra=0 / bframes=8 / b_pyramid=2 / b_adapt=2 / b_bias=0 / direct=3 / weightb=1 / open_gop=0 / weightp=2 / keyint=240 / keyint_min=24 / scenecut=40 / intra_refresh=0 / rc_lookahead=60 / rc=2pass / mbtree=0 / bitrate=6539 / ratetol=1.0 / qcomp=0.60 / qpmin=0 / qpmax=69 / qpstep=4 / cplxblur=20.0 / qblur=0.5 / vbv_maxrate=14000 / vbv_bufsize=14000 / nal_hrd=none / filler=0 / ip_ratio=1.40 / pb_ratio=1.30 / aq=2:1.00
Язык : English
Default : Да
Forced : НетАудио
Идентификатор : 2
Формат : AC-3
Формат/Информация : Audio Coding 3
Расширение режима : CM (complete main)
Параметр Endianness формата : Big
Идентификатор кодека : A_AC3
Продолжительность : 1 ч. 29 м.
Вид битрейта : Постоянный
Битрейт : 448 Кбит/сек
Каналы : 6 каналов
Расположение каналов : Front: L C R, Side: L R, LFE
Частота : 48,0 КГц
Частота кадров : 31,250 кадров/сек (1536 spf)
Метод сжатия : С потерями
Размер потока : 286 Мбайт (6%)
Язык : Russian
Default : Да
Forced : НетТекст
Идентификатор : 3
Формат : PGS
Идентификатор кодека : S_HDMV/PGS
Идентификатор кодека/Информация : Picture based subtitle format used on BDs/HD-DVDs
Язык : Russian
Default : Нет
Forced : Нет

Скриншот c названием фильма

Скриншоты

-Трейлер
Яндекс.Метрика
Рейтинг@Mail.ru