[ Сегодня на трекере фрилич! Идет свободное скачивание без начисления Download ]

Поцелуй небеса / Kiss the Sky (Роджер Янг / Roger Young) [1998 г., Драма, мелодрама, DVDRip] DVO + Original (Eng)

 

Создавать темы 14-Июл-2016 03:34

-Поцелуй небеса / Kiss the Sky-- Производство: США, Metro-Goldwyn-Mayer (MGM)
Год выпуска: 1998 г.
Жанр: Драма, мелодрама
Продолжительность: 01:45:13Мировая премьера: 26 октября 1998
Перевод: Профессиональный (двухголосый, закадровый)
Оригинальный аудиопоток: английскийРежиссер: Роджер Янг / Roger Young-В ролях: Уильям Петерсен, Гэри Коул, Шерил Ли, Патриция Шарбонно, Сизон Хабли, Теренс Стэмп, Ивана Миличевич, Эрни Ортега, Крис Далус, Эванхелина Паскуаль-Описание: Двое закадычных друзей, понимая, что их жизни стремительно несутся навстречу кризису среднего возраста, решают отправиться в экзотическое путешествие, чтобы развеять тоску и отдаться власти своих влечений.Упорно работая всю сознательную жизнь, лучшие друзья Джефф и Мартин воплотили в реальность свою американскую мечту. Однако она не принесла им ничего, кроме разочарований.Они отправляются в захватывающее путешествие, которое скорее напоминает самый настоящий побег на прекрасный тропический остров, где они оба влюбляются в очаровательную раскрепощенную девушку.Теряя бдительность, они поддаются любовной интриге и, принимая роковое решение — оставить семьи, намереваются создать на этом острове сексуальную и духовную утопию, о которой им поведал буддистский монах.-
Качество видео: DVDRip
Контейнер: AVI
Видео кодек: XviD
Аудио кодек: AC3
Видео: 704x528 (1.33:1), 23.976 fps, XviD build 73 ~1598 kbps avg, 0.18 bit/pixel
Аудио: 48 kHz, AC3 Dolby Digital, 2/0 (L,R) ch, ~192 kbps
Аудио #2: 48 kHz, AC3 Dolby Digital, 2/0 (L,R) ch, ~192 kbps
Cубтитры: отсутствуют

Media Info

Общее
Полное имя : F:\Поцелуй небеса\Poceluy nebesa.1998.DVDRip.[pirat.ca].avi
Формат : AVI
Формат/Информация : Audio Video Interleave
Размер файла : 1,47 Гбайт
Продолжительность : 1 ч. 45 м.
Общий поток : 1997 Кбит/сек
Название фильма : Poceluy nebesa.1998.DVDRip.[pirat.ca]
Программа кодирования : VirtualDubMod 1.5.10.3 | www.virtualdub-fr.org || (build 2550/release)Видео
Идентификатор : 0
Формат : MPEG-4 Visual
Профиль формата : Advanced [email protected]/* */
Параметр BVOP формата : 1
Параметр QPel формата : Нет
Параметр GMC формата : Без точки перехода
Параметр матрицы формата : Выборочная
Идентификатор кодека : XVID
Идентификатор кодека/Подсказка : XviD
Продолжительность : 1 ч. 45 м.
Битрейт : 1599 Кбит/сек
Ширина : 704 пикселя
Высота : 528 пикселей
Соотношение сторон : 4:3
Частота кадров : 23,976 (24000/1001) кадра/сек
Цветовое пространство : YUV
Субдискретизация насыщенности : 4:2:0
Битовая глубина : 8 бит
Тип развёртки : Прогрессивная
Метод сжатия : С потерями
Бит/(Пиксели*Кадры) : 0.179
Размер потока : 1,18 Гбайт (80%)
Библиотека кодирования : XviD 73Аудио #1
Идентификатор : 1
Формат : AC-3
Формат/Информация : Audio Coding 3
Расширение режима : CM (complete main)
Параметр Endianness формата : Big
Идентификатор кодека : 2000
Продолжительность : 1 ч. 45 м.
Вид битрейта : Постоянный
Битрейт : 192 Кбит/сек
Каналы : 2 канала
Расположение каналов : Front: L R
Частота : 48,0 КГц
Частота кадров : 31,250 кадров/сек (1536 spf)
Метод сжатия : С потерями
Размер потока : 145 Мбайт (10%)
Выравнивание : Разделение по промежуткам
Продолжительность промежутка : 42 мс. (1,00 видеокадр)
Время предзагрузки промежутка : 500 мс.Аудио #2
Идентификатор : 2
Формат : AC-3
Формат/Информация : Audio Coding 3
Расширение режима : CM (complete main)
Параметр Endianness формата : Big
Идентификатор кодека : 2000
Продолжительность : 1 ч. 45 м.
Вид битрейта : Постоянный
Битрейт : 192 Кбит/сек
Каналы : 2 канала
Расположение каналов : Front: L R
Частота : 48,0 КГц
Частота кадров : 31,250 кадров/сек (1536 spf)
Метод сжатия : С потерями
Размер потока : 145 Мбайт (10%)
Выравнивание : Разделение по промежуткам
Продолжительность промежутка : 42 мс. (1,00 видеокадр)
Время предзагрузки промежутка : 500 мс.

Скриншот c названием фильма

Скриншоты

-Трейлер
Яндекс.Метрика
Рейтинг@Mail.ru