Михаил Задорнов. Не дай себе заглохнуть! (2014.01.01) SATRip

 

Создавать темы 01-Янв-2014 23:03

Михаил Задорнов. Не дай себе заглохнуть! (2014.01.01) SATRip- Режиссер / Телекомпания: РЕН
Русское название: Михаил Задорнов
Год выпуска: 2014
Жанр: Юмористический концерт, сатира
Описание:
В новогоднем концерте Михаил Задорнов объясняет, почему никогда не празднует день рождения, рассуждает о политике России, читает новые рассказы.
Режиссёр: Михаил Задорнов
Продолжительность: 01:46:26
Видеокодек: DivX
Битрейт видео: 1499 kb/s
Размер кадра: 704x528
Качество видео: SATRip
Аудиокодек: MP3, 2 ch
Битрейт аудио: 128 kb/s

MI

Общее
Полное имя                               : D:\Михаил Задорнов. Не дай себе заглохнуть (2014.01.01).avi
Формат                                   : AVI
Формат/Информация                        : Audio Video Interleave
Размер файла                             : 1,22 Гбайт
Продолжительность                        : 1 ч. 46 м.
Общий поток                              : 1637 Кбит/сек
Программа кодирования                    : VirtualDubMod 1.5.10.2 (build 2540/release)
Библиотека кодирования                   : VirtualDub build 29808/release
Видео
Идентификатор                            : 0
Формат                                   : MPEG-4 Visual
Параметр BVOP формата                    : Нет
Параметр QPel формата                    : Нет
Параметр GMC формата                     : Без точки перехода
Параметр матрицы формата                 : Default (H.263)
Идентификатор кодека                     : DX50
Идентификатор кодека/Подсказка           : DivX 5
Продолжительность                        : 1 ч. 46 м.
Битрейт                                  : 1499 Кбит/сек
Ширина                                   : 704 пикселя
Высота                                   : 528 пикселей
Соотношение сторон                       : 4:3
Частота кадров                           : 25,000 кадров/сек
Цветовое пространство                    : YUV
Субдискретизация насыщенности            : 4:2:0
Битовая глубина                          : 8 бит
Тип развёртки                            : Прогрессивная
Метод сжатия                             : С потерями
Бит/(Пиксели*Кадры)                      : 0.161
Размер потока                            : 1,11 Гбайт (92%)
Библиотека кодирования                   : DivX 6.8.5 (UTC 2009-08-20)
Аудио
Идентификатор                            : 1
Формат                                   : MPEG Audio
Версия формата                           : Version 1
Профиль формата                          : Layer 3
Режим                                    : Joint stereo
Идентификатор кодека                     : 55
Идентификатор кодека/Подсказка           : MP3
Продолжительность                        : 1 ч. 46 м.
Вид битрейта                             : Постоянный
Битрейт                                  : 128 Кбит/сек
Каналы                                   : 2 канала
Частота                                  : 48,0 КГц
Метод сжатия                             : С потерями
Размер потока                            : 97,5 Мбайт (8%)
Выравнивание                             : Соединение по промежуткам
Продолжительность промежутка             : 40  мс. (1,00 видеокадр)
Время предзагрузки промежутка            : 504  мс.
Скриншоты:
Время раздачи: 24/7,
до 5 скачавших.


Яндекс.Метрика
Рейтинг@Mail.ru