Близкие люди / Being Us (Сэм Хэнкок / Sam Hancock) [2013 г., драма, WEB-DLRip-AVC, 720p] MVO

 

Создавать темы 13-Июл-2016 05:02

-Близкие люди / Being Us-- Производство: США, 3 1/2 Egos Productions, Umbrage Entertainment
Год выпуска: 2013 г.
Жанр: драма
Продолжительность: 01:45:13Мировая премьера: 4 июня 2013
Перевод: Профессиональный (многоголосый, закадровый) [iNunes]
Режиссер: Сэм Хэнкок / Sam Hancock-В ролях: Аланна Юбак, Майкл Наварра, Патрик Рассел, Барбара Нивен, Рольф Саксон, Джеймс Эшер, Ричард Конти, Кори Фишер, Джим Хисер, Анна Рени Мур-Описание: Детективная драма «Близкие люди» – дебютная полнометражная работа молодого американского режиссера Сэма Хэнкока. Драматический фильм о подсознательных бесконтрольных страхах, которые рвутся наружу в каждом человеке. В основе сюжета – трагедия Маргарет, роль которой великолепно сыграла известная американская актриса Аланна Юбак («Доктор Хаус», «Знакомство с Факерами», «Блондинка в законе»). Молодая женщина страдает тяжелой формой раздвоения личности. Днем она обычный, ничем не примечательный человек. А по ночам радикально преображается и ведет беспорядочную половую жизнь, раз за разом, меняя мужчин. Однажды Маргарет приходит в себя после очередной изматывающей ночи и понимает, что не в силах больше вести двойную жизнь. Разобраться в себе и обрести душевный покой ей помогает единственный близкий человек – полный любви и сострадания Уолкер…-
Качество видео: WEB-DLRip-AVC
Контейнер: MKV
Стандарт разрешения: 720p
Видео кодек: MPEG4 AVC
Аудио кодек: AC3
Видео: MPEG-4 AVC, 2569 kb/s, 1280х720, 25,000 fps
Аудио: AC3, 2 ch, 192 kb/s, 48,0 kHz
Cубтитры: отсутствуют

Media Info

Общее
Уникальный идентификатор : 216159010215010208338454493327769475619 (0xA29EB60784AC4F7FA383D98990841A23)
Полное имя : C:\герои 7\Близкие люди\Blizkie ljudi.2013.720p.[pirat.ca].mkv
Формат : Matroska
Версия формата : Version 2
Размер файла : 2,02 Гбайт
Продолжительность : 1 ч. 45 м.
Общий поток : 2749 Кбит/сек
Дата кодирования : UTC 2016-07-11 12:07:21
Программа кодирования : mkvmerge v6.1.0 ('Old Devil') built on Mar 4 2013 09:10:42
Библиотека кодирования : libebml v1.3.0 + libmatroska v1.4.0Видео
Идентификатор : 1
Формат : AVC
Формат/Информация : Advanced Video Codec
Профиль формата : [email protected]/* */
Параметр CABAC формата : Да
Параметр ReFrames формата : 4 кадра
Идентификатор кодека : V_MPEG4/ISO/AVC
Продолжительность : 1 ч. 45 м.
Битрейт : 2569 Кбит/сек
Ширина : 1280 пикселей
Высота : 720 пикселей
Соотношение сторон : 16:9
Режим частоты кадров : Постоянный
Частота кадров : 25,000 кадров/сек
Цветовое пространство : YUV
Субдискретизация насыщенности : 4:2:0
Битовая глубина : 8 бит
Тип развёртки : Прогрессивная
Бит/(Пиксели*Кадры) : 0.112
Размер потока : 1,84 Гбайт (91%)
Библиотека кодирования : x264 core 142
Настройки программы : cabac=1 / ref=3 / deblock=1:0:0 / analyse=0x3:0x113 / me=hex / subme=7 / psy=1 / psy_rd=1.00:0.00 / mixed_ref=1 / me_range=16 / chroma_me=1 / trellis=1 / 8x8dct=1 / cqm=0 / deadzone=21,11 / fast_pskip=1 / chroma_qp_offset=-2 / threads=36 / lookahead_threads=5 / sliced_threads=0 / nr=0 / decimate=1 / interlaced=0 / bluray_compat=0 / constrained_intra=0 / bframes=6 / b_pyramid=2 / b_adapt=1 / b_bias=0 / direct=1 / weightb=1 / open_gop=0 / weightp=2 / keyint=200 / keyint_min=20 / scenecut=0 / intra_refresh=0 / rc_lookahead=40 / rc=2pass / mbtree=1 / bitrate=2569 / ratetol=1.0 / qcomp=0.60 / qpmin=0 / qpmax=69 / qpstep=4 / cplxblur=20.0 / qblur=0.5 / vbv_maxrate=3854 / vbv_bufsize=10279 / nal_hrd=none / filler=0 / ip_ratio=1.40 / aq=1:1.00
Язык : English
Default : Да
Forced : НетАудио
Идентификатор : 2
Формат : AC-3
Формат/Информация : Audio Coding 3
Расширение режима : CM (complete main)
Параметр Endianness формата : Big
Идентификатор кодека : A_AC3
Продолжительность : 1 ч. 45 м.
Вид битрейта : Постоянный
Битрейт : 192 Кбит/сек
Каналы : 2 канала
Расположение каналов : Front: L R
Частота : 48,0 КГц
Частота кадров : 31,250 кадров/сек (1536 spf)
Метод сжатия : С потерями
Размер потока : 145 Мбайт (7%)
Default : Да
Forced : Нет

Скриншот c названием фильма

Скриншоты

-Трейлер
Яндекс.Метрика
Рейтинг@Mail.ru