День восьмой / Le huitième jour (Жако Ван Дормел /Jaco van Dormael) [1996 г., драма, комедия, DVDRip] MVO

 

Создавать темы 13-Июл-2016 04:55

-День восьмой / Le huitième jour-- Производство: Бельгия, Франция, Великобритания, Canal+ [fr], Center for Film and Audiovisual Arts of the French Community of Belgium, Centre National de la Cinématographie (CNC), D.A. Films, ...
Год выпуска: 1996 г.
Жанр: драма, комедия
Продолжительность: 01:52:44Мировая премьера: 22 мая 1996
Перевод: Профессиональный (многоголосый, закадровый)
Режиссер: Жако Ван Дормел /Jaco van Dormael-В ролях: Даниэль Отой / Daniel Auteuil, Миу-Миу / Miou-Miou, Паскаль Дюкенн / Pascal Duquenne, Анри Гарсен / Henri Garcin, Изабель Садоян / Isabelle Sadoyan-Описание: Судьбы совершенно разных людей подчас переплетаются самым невероятным образом. Гарри — простой клерк, расстался с женой, становится свидетелем того, как из психиатрической лечебницы убегает странный пациент по имени Жорж.Он так же, как и Гарри, одинок — он остался без матери, ему некуда идти и не к чему стремиться. Между этими, совершенно разными на первый взгляд людьми завязывается тесная дружба, которая помогает обоим преодолеть все невзгоды и начать новую, по — настоящему счастливую жизнь.-
Качество видео: DVDRip
Контейнер: AVI
Видео кодек: XviD
Аудио кодек: MP3
Видео: 736x400 (1.84:1), 25 fps, XviD Final 1.0.1 (build 35) ~1326 kbps avg, 0.18 bit/pixel
Аудио: 44.100 kHz, MPEG Layer 3, 2 ch, ~192.00 kbps avg
Cубтитры: отсутствуют

Награды

Золотой глобус, 1997 год
Номинации (1):
Лучший фильм на иностранном языке — «Бельгия»
Сезар, 1997 год
Номинации (1):
Лучший актер (Даниель Отой)
Каннский кинофестиваль, 1996 год
Победитель (1):
Серебряная премия за лучшую мужскую роль ( Даниель Отой , Паскаль Дюкенн )
Номинации (1):
Золотая пальмовая ветвь

Рецензия

Мой друг ЖоржФильм «День восьмой» Жако Ван Дормеля сложно описать словами, настолько он прекрасен. Во время просмотра у меня то не сходила улыбка с лица, то текли слезы, а то все вместе взятое. Этот фильм затрагивает самые прекрасные струны человеческой души, и хочется быть лучше, чище и добрее.О сюжете. Гарри работает в сфере коммерции, выступает на семинарах, где учит, как выгодно продать себя. В работе он успешен, но в семейной жизни — все наоборот. Жена вместе с дочками ушла от него. Каждый день проходит одинаково: тосты, прогноз погоды, натянутая улыбка в зеркало, работа и снова дом. Гарри безумно любит жену и девочек, и разлука терзает его. Однако замотавшись на работе, он забывает встретить дочек на вокзале. С тех пор жена не хочет его больше видеть. Гарри впадает в отчаяние. Он садится в машину и на бешеной скорости едет сквозь дождь. Вот он убирает руки с руля и, кажется, что случится самое страшное. Но вдруг резкий удар, и Гарри понимает, что он кого-то сбил. Оказывается, что это собака сбежавшего из интерната Жоржа, который болен синдромом Дауна. Жорж — необычный человек. Его душа открыта для дружбы и любви. Он не умеет скрывать своих чувств, предавать и обижать. Эта встреча меняет все в жизни Гарри. Много необыкновенных событий ждет его и Жоржа. В результате, Гарри найдет лучшего друга, научится радоваться жизни, замечать красоту в природе и людях и просто любить, как может любить Человек.«День восьмой» — драма, но после просмотра в душе остается и светлая грусть, и нежность, и желание быть такими добрыми, чуткими, ласковыми, и искренними, как Жорж. А еще хочется иметь такого друга.10 из 10

Media Info

Общее
Уникальный идентификатор : 221254527616191488760051027892308021829 (0xA674126F086C0DC22C1CD1F173881245)
Полное имя : F:\Большой и добрый великан\The BFG 2016.TC-AVC.[pirat.ca].mkv
Формат : Matroska
Версия формата : Version 2
Размер файла : 2,24 Гбайт
Продолжительность : 1 ч. 51 м.
Общий поток : 2894 Кбит/сек
Дата кодирования : UTC 2016-07-11 19:26:01 / UTC 2016-07-11 19:26:01
Программа кодирования : Lavf54.59.107
Библиотека кодирования : Lavf54.59.107 / Lavf54.59.107Видео
Идентификатор : 1
Формат : AVC
Формат/Информация : Advanced Video Codec
Профиль формата : [email protected]/* */
Параметр CABAC формата : Да
Параметр ReFrames формата : 3 кадра
Идентификатор кодека : V_MPEG4/ISO/AVC
Продолжительность : 1 ч. 51 м.
Битрейт : 2132 Кбит/сек
Ширина : 720 пикселей
Высота : 352 пикселя
Соотношение сторон : 2,045
Режим частоты кадров : Постоянный
Частота кадров : 29,940 кадров/сек
Цветовое пространство : YUV
Субдискретизация насыщенности : 4:2:0
Битовая глубина : 8 бит
Тип развёртки : Прогрессивная
Бит/(Пиксели*Кадры) : 0.281
Размер потока : 1,65 Гбайт (74%)
Default : Да
Forced : Нет
FromStats_BitRate : 2182794
FromStats_Duration : 01:52:11.763000000
FromStats_FrameCount : 201549
FromStats_StreamSize : 1836756650Аудио #1
Идентификатор : 2
Формат : AC-3
Формат/Информация : Audio Coding 3
Расширение режима : CM (complete main)
Параметр Endianness формата : Big
Идентификатор кодека : A_AC3
Продолжительность : 1 ч. 51 м.
Вид битрейта : Постоянный
Битрейт : 384 Кбит/сек
Каналы : 2 канала
Расположение каналов : Front: L R
Частота : 48,0 КГц
Частота кадров : 31,250 кадров/сек (1536 spf)
Метод сжатия : С потерями
Задержка видео : -3 мс.
Размер потока : 305 Мбайт (13%)
Заголовок : RUS ТС
Default : Да
Forced : Нет
FromStats_BitRate : 384000
FromStats_Duration : 01:52:11.776000000
FromStats_FrameCount : 210368
FromStats_StreamSize : 323125248Аудио #2
Идентификатор : 3
Формат : MPEG Audio
Версия формата : Version 1
Профиль формата : Layer 3
Режим : Joint stereo
Расширение режима : MS Stereo
Идентификатор кодека : A_MPEG/L3
Идентификатор кодека/Подсказка : MP3
Продолжительность : 1 ч. 51 м.
Вид битрейта : Постоянный
Битрейт : 320 Кбит/сек
Каналы : 2 канала
Частота : 48,0 КГц
Метод сжатия : С потерями
Задержка видео : -1 мс.
Размер потока : 254 Мбайт (11%)
Заголовок : ENG TC
Default : Да
Forced : Нет
FromStats_BitRate : 320000
FromStats_Duration : 01:52:11.712000000
FromStats_FrameCount : 280488
FromStats_StreamSize : 269268480

Скриншот c названием фильма

Скриншоты

-Трейлер
Яндекс.Метрика
Рейтинг@Mail.ru