[ Сегодня на трекере фрилич! Идет свободное скачивание без начисления Download ]

Ответ знает только ветер / Die Antwort kennt nur der Wind (Альфред Форер / Alfred Vohrer) [1974 г., детектив, DVDRip] MVO

 

Создавать темы 13-Июл-2016 04:52

-Ответ знает только ветер / Die Antwort kennt nur der Wind-- Производство: Германия (ФРГ), Франция, Paris-Cannes Production, Roxy Films
Год выпуска: 1974 г.
Жанр: детектив
Продолжительность: 01:41:39Мировая премьера: 20 ноября 1974
Перевод: Профессиональный (многоголосый, закадровый)
Режиссер: Альфред Форер / Alfred Vohrer-В ролях: Морис Роне, Марта Келлер, Раймон Пеллегрен, Карин Дор, Андре Фалькон, Антон Диффрин, г Робер Дальбан, Кристиан Барбье, Филипп Баронне, Альф Мархольм, Херберт Флайшманн, Гюнтер Макк, Хайнц Бауманн, Конрад Георг, Сьюзи Кэрриэр, Клаус Шварцкопф, Йоханнес Марио Зиммель, Карл Вальтер Дисс-Описание: В Каннах взрывается яхта известного немецкого банкира. Сотрудник страховой компании Роберт Лукас отправляется расследовать причины катастрофы. И в этом райском уголке он знакомиться с миллионершей Хильдой, ее служанкой Николь и художницей Анжелой.-
Качество видео: DVDRip
Контейнер: AVI
Видео кодек: XviD
Аудио кодек: AC3
Видео: 704x528 (1.33:1), 25 fps, XviD build 72 ~1849 kbps avg, 0.20 bit/pixel
Аудио: 48 kHz, AC3 Dolby Digital, 2/0 (L,R) ch, ~192 kbps
Cубтитры: отсутствуют

Доп. информация

По роману Йоханнеса Марио Зиммеля.

Награды

ММКФ, 1975 год
Номинации (1):
Золотой приз

Media Info

Общее
Полное имя : F:\Ответ знает только ветер\Otvet znayet tolko veter.1974.DVDRip.[pirat.ca].avi
Формат : AVI
Формат/Информация : Audio Video Interleave
Размер файла : 1,46 Гбайт
Продолжительность : 1 ч. 41 м.
Общий поток : 2051 Кбит/сек
Название фильма : Otvet znayet tolko veter.1974.DVDRip.[pirat.ca]
Программа кодирования : VirtualDubMod 1.5.10.3 | www.virtualdub-fr.org || (build 2550/release)Видео
Идентификатор : 0
Формат : MPEG-4 Visual
Профиль формата : Advanced [email protected]/* */
Параметр BVOP формата : 1
Параметр QPel формата : Нет
Параметр GMC формата : Без точки перехода
Параметр матрицы формата : Выборочная
Идентификатор кодека : XVID
Идентификатор кодека/Подсказка : XviD
Продолжительность : 1 ч. 41 м.
Битрейт : 1849 Кбит/сек
Ширина : 704 пикселя
Высота : 528 пикселей
Соотношение сторон : 4:3
Частота кадров : 25,000 кадров/сек
Цветовое пространство : YUV
Субдискретизация насыщенности : 4:2:0
Битовая глубина : 8 бит
Тип развёртки : Прогрессивная
Метод сжатия : С потерями
Бит/(Пиксели*Кадры) : 0.199
Размер потока : 1,31 Гбайт (90%)
Библиотека кодирования : XviD 72Аудио
Идентификатор : 1
Формат : AC-3
Формат/Информация : Audio Coding 3
Расширение режима : CM (complete main)
Параметр Endianness формата : Big
Идентификатор кодека : 2000
Продолжительность : 1 ч. 41 м.
Вид битрейта : Постоянный
Битрейт : 192 Кбит/сек
Каналы : 2 канала
Расположение каналов : Front: L R
Частота : 48,0 КГц
Частота кадров : 31,250 кадров/сек (1536 spf)
Метод сжатия : С потерями
Размер потока : 140 Мбайт (9%)
Выравнивание : Разделение по промежуткам
Продолжительность промежутка : 40 мс. (1,00 видеокадр)
Время предзагрузки промежутка : 500 мс.

Скриншот c названием фильма

Скриншоты

-Трейлер
Яндекс.Метрика
Рейтинг@Mail.ru