Молли Мун и волшебная книга гипноза / Molly Moon and the Incredible Book of Hypnotism (Кристофер Н. Роули Christopher N. Rowley) [2015 г., семейный, BDRip] VO

 

Создавать темы 13-Июл-2016 04:48

-Молли Мун и волшебная книга гипноза / Molly Moon and the Incredible Book of Hypnotism-- Производство: Великобритания, Amber Entertainment, Lip Sync Production
Год выпуска: 2015 г.
Жанр: семейный
Продолжительность: 01:37:43Мировая премьера: 11 апреля 2015
Перевод: Любительский (одноголосый, закадровый)
Режиссер: Кристофер Н. Роули Christopher N. Rowley-В ролях: Рэффи Кэссиди, Эмили Уотсон, Доминик Монахэн, Джоан Коллинз, Селия Имри, Энн-Мэри Дафф, Сэди Фрост, Бен Миллер, Лесли Мэнвилл, Гари Кемп-Описание: Молли Мун — сирота. Она живет в Хардвикском приюте, где властвует ужасная мисс Гадкинс. Злобная старуха всячески унижает и притесняет девочку, старшие ребята дразнят ее, учителя ругают за несобранность — в общем, жизнь маленькой Молли сложно назвать счастливой. Но однажды в руки Молли Мун попадает таинственная старинная книга по гипнозу, и жизнь девочки в одночасье меняется. Она обнаруживает в себе удивительную способность — заставлять людей делать все, что она пожелает. Вскоре мисс Гадкинс оказывается полностью в ее власти, и Молли замышляет побег из сиротского приюта. Она садится на самолет и улетает в Нью-Йорк, чтобы найти там своего лучшего друга Рокки, завоевать славу и богатство… Но за Молли по пятам следует зловещий незнакомец. Он знает секрет девочки и намерен использовать ее необычайные способности в своих гнусных целях…-
Качество видео: BDRip
Контейнер: AVI
Видео кодек: XviD
Аудио кодек: AC3
Видео: 720x392 (1.84:1), 24 fps, XviD build 64 ~1468 kbps avg, 0.22 bit/pixel
Аудио: 44.1 kHz, AC3 Dolby Digital, 2/0 (L,R) ch, ~192 kbps
Cубтитры: отсутствуют

Доп. информация

Экранизация первой детской книги из серии «Молли Мун» английской писательницы Джорджии Бинг.

Media Info

Общее
Полное имя : F:\Молли Мун и волшебная книга гипноза\Volshebnaja kniga gipnoza.2015.BDRip.[pirat.ca].avi
Формат : AVI
Формат/Информация : Audio Video Interleave
Размер файла : 1,14 Гбайт
Продолжительность : 1 ч. 37 м.
Общий поток : 1666 Кбит/сек
Название фильма : Volshebnaja kniga gipnoza.2015.BDRip.[pirat.ca]
Программа кодирования : VirtualDubMod 1.5.10.3 (build 2550/release)Видео
Идентификатор : 0
Формат : xvid
Идентификатор кодека : xvid
Продолжительность : 1 ч. 37 м.
Битрейт : 1468 Кбит/сек
Ширина : 720 пикселей
Высота : 392 пикселя
Соотношение сторон : 1,85:1
Частота кадров : 24,000 кадра/сек
Тип развёртки : Прогрессивная
Бит/(Пиксели*Кадры) : 0.217
Размер потока : 1,00 Гбайт (88%)Аудио
Идентификатор : 1
Формат : AC-3
Формат/Информация : Audio Coding 3
Расширение режима : CM (complete main)
Параметр Endianness формата : Big
Идентификатор кодека : 2000
Продолжительность : 1 ч. 37 м.
Вид битрейта : Постоянный
Битрейт : 192 Кбит/сек
Каналы : 2 канала
Расположение каналов : Front: L R
Частота : 44,1 КГц
Частота кадров : 28,711 кадров/сек (1536 spf)
Битовая глубина : 16 бит
Метод сжатия : С потерями
Размер потока : 134 Мбайт (12%)
Выравнивание : Разделение по промежуткам
Продолжительность промежутка : 160 мс. (3,84 видеокадра)
Время предзагрузки промежутка : 640 мс.

Скриншот c названием фильма

Скриншоты

-Трейлер
Яндекс.Метрика
Рейтинг@Mail.ru