[ Сегодня на трекере фрилич! Идет свободное скачивание без начисления Download ]

Тихий дом / Silent House (Крис Кентис / Chris Kentis) [2011 г., ужасы, триллер, драма, детектив, приключения, HDRip] MVO

 

Создавать темы 13-Июл-2016 04:45

-Тихий дом / Silent House-- Производство: Франция, США, Elle Driver, Tazora Films
Год выпуска: 2011 г.
Жанр: ужасы, триллер, драма, детектив, приключения
Продолжительность: 01:25:53Мировая премьера: 21 января 2011
Перевод: Профессиональный (многоголосый, закадровый) [R5]
Режиссер: Крис Кентис / Chris Kentis-В ролях: Элизабет Олсен, Адам Трези, Эрик Шеффер Стивенс, Джулия Чан, Адам Барнетт, Хейли Мерфи-Описание: Отец и дочь-тинейджер получили работу по реставрации дома. Они решаются переночевать в старом жилище, а рано с утра приступить к работе. Но все пошло не так, когда девушка ночью стала слышать странные звуки с верхних этажей…-
Качество видео: HDRip
Контейнер: AVI
Видео кодек: XviD
Аудио кодек: AC3
Видео: 720x384 (1.88:1), 23.976 fps, XviD build 50 ~2027 kbps avg, 0.31 bit/pixel
Аудио: 48 kHz, AC3 Dolby Digital, 2/0 (L,R) ch, ~224 kbps
Cубтитры: отсутствуют

Рецензия

Сара, ее отец и дядя приезжают в свой старый дом чтобы сделать ремонт и разобрать старые вещи. Они решают остаться на ночь. Сара слышит странные звуки. Ей кажется, что в доме кто-то есть…Казалось бы обычное развитие событий: старый дом, прогнившие стены, нет электричества, куча хлама, на втором этаже какие-то звуки, на главных героев нападает что-то страшное… Но не так все просто. В фильме затронута проблема, которая актуальна и в обычной жизни. Ведь жестокость и насилие в семье — это частое явление, которое, как правило, остается тайной. Дети боятся, стыдятся и не хотят говорить об этом.Режиссер обращает наше внимание на эмоции Сары, страх, непонимание происходящего, ужас в ее глазах и растерянность. Мы как-бы ходим за ней по пятам. Сам сюжет немного затянут и скучноват, но последняя сцена стоит свеч.

Media Info

Общее
Полное имя : F:\Тихий дом\Tihij dom.2011.HDRip.[pirat.ca].avi
Формат : AVI
Формат/Информация : Audio Video Interleave
Размер файла : 1,36 Гбайт
Продолжительность : 1 ч. 25 м.
Общий поток : 2261 Кбит/сек
Название фильма : Tihij dom.2011.HDRip.[pirat.ca]
Программа кодирования : VirtualDubMod 1.5.10.2 (build 2540/release)Видео
Идентификатор : 0
Формат : MPEG-4 Visual
Профиль формата : Advanced [email protected]/* */
Параметр BVOP формата : 2
Параметр QPel формата : Нет
Параметр GMC формата : Без точки перехода
Параметр матрицы формата : Default (MPEG)
Идентификатор кодека : XVID
Идентификатор кодека/Подсказка : XviD
Продолжительность : 1 ч. 25 м.
Битрейт : 2028 Кбит/сек
Ширина : 720 пикселей
Высота : 384 пикселя
Соотношение сторон : 1,85:1
Частота кадров : 23,976 (23976/1000) кадра/сек
Цветовое пространство : YUV
Субдискретизация насыщенности : 4:2:0
Битовая глубина : 8 бит
Тип развёртки : Прогрессивная
Метод сжатия : С потерями
Бит/(Пиксели*Кадры) : 0.306
Размер потока : 1,22 Гбайт (90%)
Библиотека кодирования : XviD 1.2.1 (UTC 2008-12-04)Аудио
Идентификатор : 1
Формат : AC-3
Формат/Информация : Audio Coding 3
Расширение режима : CM (complete main)
Параметр Endianness формата : Big
Идентификатор кодека : 2000
Продолжительность : 1 ч. 25 м.
Вид битрейта : Постоянный
Битрейт : 224 Кбит/сек
Каналы : 2 канала
Расположение каналов : Front: L R
Частота : 48,0 КГц
Частота кадров : 31,250 кадров/сек (1536 spf)
Метод сжатия : С потерями
Размер потока : 138 Мбайт (10%)
Выравнивание : Разделение по промежуткам
Продолжительность промежутка : 42 мс. (1,00 видеокадр)
Время предзагрузки промежутка : 500 мс.

Скриншот c названием фильма

Скриншоты

-Трейлер
Яндекс.Метрика
Рейтинг@Mail.ru