[ Сегодня на трекере фрилич! Идет свободное скачивание без начисления Download ]

Новый Камеди Клаб / Комеди Клаб / Comedy Club (01.01.2014) SATRip

 

Создавать темы 01-Янв-2014 22:55

Новый Камеди Клаб / Комеди Клаб / Comedy Club (01.01.2014) SATRip- Название: Новый Камеди Клаб / Комеди Клаб / Comedy Club
Режиссер / Телекомпания: тнт
Год выпуска: 2014
Жанр: Телепередача
Описание:
Как всегда, Comedy Club собрал все самое смешное, чтобы оставаться самым крутым юмористическим шоу на телевидении. Только самые лучшие номера от резидентов "Сomedy Сlub". Выдержанный юмор, проверенный временем и многомиллионной телевизионной аудиторией. Павел Воля бросает пить, а Тимур Батрутдинов оказывает клиентам интимные услуги. Кроме того в выпуске - лучшие песни от участников грушинского бард-н-блюз фестиваля в Америке, экспериментальный юмор от Гарика Мартиросяна и многое другое. Вы помните, что теперь Новый Comedy Club – больше чем просто шоу на сцене? Камеры готовы? Музыканты готовы? Зрители готовы? Поехали!
Продолжительность: 00:45:47
Видеокодек: XviD
Битрейт видео: 1801 kb/s
Размер кадра: 720х400
Качество видео: SATRip
Аудиокодек: MP3, 2 ch
Битрейт аудио: 128 kb/s

MI

Общее
Полное имя                               : D:\НЕ УДАЛЯТЬ!!!\Novyj.Kamedi.klab.(01.01.2014).avi
Формат                                   : AVI
Формат/Информация                        : Audio Video Interleave
Размер файла                             : 635 Мбайт
Продолжительность                        : 45 м.
Общий поток                              : 1938 Кбит/сек
Библиотека кодирования                   : VirtualDub build 32706/release
Видео
Идентификатор                            : 0
Формат                                   : MPEG-4 Visual
Профиль формата                          : Advanced [email protected]
Параметр BVOP формата                    : 2
Параметр QPel формата                    : Нет
Параметр GMC формата                     : Без точки перехода
Параметр матрицы формата                 : Default (MPEG)
Идентификатор кодека                     : XVID
Идентификатор кодека/Подсказка           : XviD
Продолжительность                        : 45 м.
Битрейт                                  : 1801 Кбит/сек
Ширина                                   : 720 пикселей
Высота                                   : 400 пикселей
Соотношение сторон                       : 16:9
Частота кадров                           : 25,000 кадров/сек
Цветовое пространство                    : YUV
Субдискретизация насыщенности            : 4:2:0
Битовая глубина                          : 8 бит
Тип развёртки                            : Прогрессивная
Метод сжатия                             : С потерями
Бит/(Пиксели*Кадры)                      : 0.250
Размер потока                            : 590 Мбайт (93%)
Библиотека кодирования                   : XviD 1.2.1 (UTC 2008-12-04)
Аудио
Идентификатор                            : 1
Формат                                   : MPEG Audio
Версия формата                           : Version 1
Профиль формата                          : Layer 3
Режим                                    : Joint stereo
Расширение режима                        : MS Stereo
Идентификатор кодека                     : 55
Идентификатор кодека/Подсказка           : MP3
Продолжительность                        : 45 м.
Вид битрейта                             : Постоянный
Битрейт                                  : 128 Кбит/сек
Каналы                                   : 2 канала
Частота                                  : 48,0 КГц
Метод сжатия                             : С потерями
Размер потока                            : 41,9 Мбайт (7%)
Выравнивание                             : Разделение по промежуткам
Продолжительность промежутка             : 40  мс. (1,00 видеокадр)
Время предзагрузки промежутка            : 500  мс.
Скриншоты:
Время раздачи: 24/7, до 5 скачавших.
Яндекс.Метрика
Рейтинг@Mail.ru