Сказки на ночь / Bedtime Stories (Адам Шенкман / Adam Shankman) [2008 г., фэнтези, мелодрама, комедия, семейный, BDRip-AVC] Dub [Невафильм 2008 / Лицензия] + Sub (Rus)

 

Создавать темы 13-Июл-2016 04:43

-Сказки на ночь / Bedtime Stories-- Производство: США, Walt Disney Pictures, Happy Madison Productions, Gunn Films Offspring Entertainment
Год выпуска: 2008 г.
Жанр: фэнтези, мелодрама, комедия, семейный
Продолжительность: 01:39:13Мировая премьера: 24 декабря 2008
Российская премьера: 1 января 2009, «BVSPR Disney»
Дата выхода DVD: 14 мая 2009, «Уолт Дисней Компани СНГ»
Дата выхода Blu-Ray: 13 апреля 2010, «Уолт Дисней Компани СНГ»Перевод: Профессиональный (полное дублирование) [Невафильм 2008 / Лицензия]
Режиссер: Адам Шенкман / Adam Shankman-В ролях: Адам Сэндлер, Кери Расселл, Гай Пирс, Расселл Брэнд, Ричард Гриффитс, Тереза Палмер, Люси Лоулесс, Кортни Кокс, Джонатан Морган Хейт, Лаура Энн Кеслинг-Описание: Отец Скитера Бронсона владел небольшой семейной гостиницей, но был вынужден продать её за долги. После этого сам Скитер (Адам Сэндлер), работавший в гостинице с детства, оказался в ней не управляющим, а разнорабочим… Однажды Скитер был вынужден сочинить и рассказать своим племянникам сказку. И он был невероятно поражён, когда на следующий день события его сказки стали былью. Поняв феномен произошедшего, Скитер решил наладить свою жизнь, но совершил несколько ошибок. Впрочем, он смог не только осознать их, но и самостоятельно исправить. И в результате не только совершил несколько достойных поступков, но и обрёл своё счастье.-
Качество видео: BDRip-AVC
Контейнер: MKV
Видео кодек: MPEG4 AVC
Аудио кодек: AC3
Видео: 2123 Кбит/с, 1024x436, 23.976 кадр/с
Аудио: AC3, 6 ch, 384 Кбит/с, 48,0 КГц
Cубтитры: русские
Формат субтитров: softsub (SRT)
Доп. информация о субтитрах: включаемые

Доп. информация

Патрик и Бобби смотрят по телевизору шоу «Все Тип Топ или жизнь Зака и Коди»,в нем снимаются близнецы Коул и Дилан Спрус, чья карьера началась в фильме «Большой папа» с Адамом Сэндлером.
Маленькая девочка, которая подбирает шляпу героя Адама Сэндлера в средневековом фрагменте, это дочь актёра Сэди Сэндлер, а её мама, которая держит малышку на руках, это супруга Адама Сэндлера Джеки Сэндлер.
Появляющийся в одной из сцен фильма бульдог принадлежит Адаму Сэндлеру, который дал своему любимцу имя Мотцаболл.
«Сказки на ночь» это первый семейный фильм Адама Сэндлера и первый проект его студии Happy Madison Productions, получивший рейтинг PG.

Рецензия

Скитер Бронсон — находчивый служащий огромного отеля. С детства Скитер мечтает стать управляющим, но как ему этого добиться, когда он управляет только лампочками и метлами? Не правда ли, что такое может быть только в сказке?Однажды судьба приносит ему неожиданный подарок, в лице двух симпатичных племянников. Которые, как и все маленькие дети, любят сказки. Предприимчивый дядюшка быстро находит общий язык с детьми.Перед сном детишки любят слушать сказки, Скитер не прочь их рассказывать. Не желая читать занудные книжки, наш герой включает всю свою фантазию, он сочиняем им чудесные истории, в которых главный герой он сам. Пересказывая свою жизнь в сказках и немного ее приукрашивая он замечает что, то о чем он повествует в своих рассказах начинает сбываться.«Это мой шанс, я могу стать тем, кем захочу!» — именно по этому принципу Скитер и начинает действовать, стоит только придумать. Но не знал бедолага, что все зависит не только от него, а еще и от его слушателей, двух племянников и морской свинки с огромными глазами.Во что все это выльется? Чем закончится данная история? А самое главное, какой ждет конец, счастливый или наоборот? Эти сложные вопросы и предстоит решить нашему герою, который и не догадывается что эму подбросит «злодейка судьба», ну или «злодейка фантазия».Новогодний подарок для поклонников Адама Сэндлера. Который блистает в новой комедийной роли, служащего огромного отеля и пытается изменить свою жизнь посредством своей фантазии.В актерской игре Адама, ничего нового не заметил, справился он со своей задачей как всегда блистательно.Рад и тому, что и здесь принял участие старый друг Сэндлера, Роб Шнайдер. Очень нравится эта традиция.Удалось снять очень добрый, сказочный, оптимистический фильм. Бывает ли такое только в сказках, или нет? Каждый имеет свой взгляд на это.Данный фильм повествуют, о том что не все так плохо, о том что даже сказка может изменить твою жизнь.Спасибо создателям и актерам за отлично проделанную работу.10 из 10

Media Info

Общее
Уникальный идентификатор : 202644386174482777384685629123548697018 (0x9873E39EA620F4CF932E96E5406851BA)
Полное имя : F:\Сказки на ночь\Skazki na nochj.2008.BDRip-AVC.[pirat.ca].mkv
Формат : Matroska
Версия формата : Version 2
Размер файла : 1,74 Гбайт
Продолжительность : 1 ч. 39 м.
Общий поток : 2509 Кбит/сек
Название фильма : Сказки на ночь | Bedtime Stories [2008]
Дата кодирования : UTC 2016-07-12 17:18:40
Программа кодирования : mkvmerge v5.3.0 ('I could have danced') built on Feb 9 2012 10:38:07
Библиотека кодирования : libebml v1.2.3 + libmatroska v1.3.0Видео
Идентификатор : 1
Формат : AVC
Формат/Информация : Advanced Video Codec
Профиль формата : [email protected]/* */
Параметр CABAC формата : Да
Параметр ReFrames формата : 9 кадров
Идентификатор кодека : V_MPEG4/ISO/AVC
Продолжительность : 1 ч. 39 м.
Битрейт : 2123 Кбит/сек
Ширина : 1024 пикселя
Высота : 436 пикселей
Соотношение сторон : 2,35:1
Режим частоты кадров : Постоянный
Частота кадров : 23,976 (24000/1001) кадра/сек
Цветовое пространство : YUV
Субдискретизация насыщенности : 4:2:0
Битовая глубина : 8 бит
Тип развёртки : Прогрессивная
Бит/(Пиксели*Кадры) : 0.198
Размер потока : 1,44 Гбайт (83%)
Библиотека кодирования : x264 core 133 r2334 a3ac64b
Настройки программы : cabac=1 / ref=9 / deblock=1:-3:-3 / analyse=0x3:0x113 / me=umh / subme=11 / psy=1 / psy_rd=1.00:0.20 / mixed_ref=1 / me_range=48 / chroma_me=1 / trellis=2 / 8x8dct=1 / cqm=0 / deadzone=21,11 / fast_pskip=0 / chroma_qp_offset=-3 / threads=4 / lookahead_threads=1 / sliced_threads=0 / nr=0 / decimate=0 / interlaced=0 / bluray_compat=0 / constrained_intra=0 / bframes=11 / b_pyramid=2 / b_adapt=2 / b_bias=0 / direct=3 / weightb=1 / open_gop=0 / weightp=2 / keyint=240 / keyint_min=23 / scenecut=40 / intra_refresh=0 / rc_lookahead=40 / rc=2pass / mbtree=0 / bitrate=2123 / ratetol=1.0 / qcomp=0.60 / qpmin=0 / qpmax=69 / qpstep=4 / cplxblur=20.0 / qblur=0.5 / vbv_maxrate=50000 / vbv_bufsize=50000 / nal_hrd=none / ip_ratio=1.40 / pb_ratio=1.30 / aq=1:1.00
Язык : English
Default : Да
Forced : ДаАудио
Идентификатор : 2
Формат : AC-3
Формат/Информация : Audio Coding 3
Расширение режима : CM (complete main)
Параметр Endianness формата : Big
Идентификатор кодека : A_AC3
Продолжительность : 1 ч. 39 м.
Вид битрейта : Постоянный
Битрейт : 384 Кбит/сек
Каналы : 6 каналов
Расположение каналов : Front: L C R, Side: L R, LFE
Частота : 48,0 КГц
Частота кадров : 31,250 кадров/сек (1536 spf)
Метод сжатия : С потерями
Размер потока : 273 Мбайт (15%)
Заголовок : Дублированный AC3 5.1 @ 384 kbps
Язык : Russian
Default : Да
Forced : ДаТекст
Идентификатор : 3
Формат : UTF-8
Идентификатор кодека : S_TEXT/UTF8
Идентификатор кодека/Информация : UTF-8 Plain Text
Заголовок : Полные №1
Язык : Russian
Default : Нет
Forced : НетМеню
00:00:00.000 : :Opening Church
00:05:28.702 : :The Sunny Vista Mega Nottingham
00:09:19.724 : :Bobbi's Birthday Party
00:14:44.758 : :Uncle Skeeter Babysits
00:19:02.432 : :Sir Fixalot
00:24:25.338 : :Skeeter Gets a Shot
00:30:07.263 : :Raining Gumballs
00:35:06.978 : :Wild West Adventure
00:40:27.800 : :Paparazzi Princess in Distress
00:45:15.462 : :Rooftop Campout
00:52:11.920 : :Legend of Skeetacus
00:56:57.288 : :Day at the Beach
01:03:36.020 : :Space Odyssey
01:08:50.459 : :Fire Prevention
01:14:21.290 : :Skeeter Hotel Theme
01:19:25.802 : :"the Sad Part"
01:23:05.146 : :Demolition!
01:26:24.304 : :Happy Ending
01:30:36.597 : :Marty's Motel
01:32:34.298 : :Closing Credits
01:39:13.948 : :End

Скриншот c названием фильма

Скриншоты

-Трейлер
Яндекс.Метрика
Рейтинг@Mail.ru