Фокусы с картами от Джея Сэнки / Playing Card Magic, Performed by Jay Sankey [2016, Фокусы, ENG]

 

Создавать темы 13-Июл-2016 04:40

-Фокусы с картами от Джея Сэнки / Playing Card Magic, Performed by Jay Sankey-- Страна: США
Тематика: Фокусы
Тип раздаваемого материала: Видеоурок
Продолжительность: 04:26:12
Год выпуска: 2016Язык: Английский
Перевод: Отсутствует
Описание: Ведущий и владелец сайта InsideDeception.com Джей Сэнки показывает фокусы с игральными картами, после чего раскрывает их секреты.Курс поделен на две категории: простые фокусы (папка Basic) и фокусы для продвинутых, более сложные (папка Advanced)Качество видео: WEB-DLRip-AVC
Видео кодек: MPEG4 AVC
Аудио кодек: AAC
Видео: 640x480 - 1920x1080

Содержание раздачи:

Material from InsideDeception.com as of June 1st, 2016:
(Basic)

01 "AmbishX" -> A few ideas for the classic 'Ambitious Card' trick.
02 "Departure Time" -> Inspired by Dr. Daley's 'Last Trick.'
03 "Proximity" -> The spectator 'finds the card' in a mysterious way.
04 "Underbanded" -> A card changes under especially 'challenging' conditions.
05 "Torn And Restored" -> I left-of-center approach to the classic plot. 06 "Fragile Harbor" -> The ink of a fresh drawing is brought to LIFE.
07 "Long Distance" -> The 'natural theatre' of this simple card trick makes it especially memorable.
08 "Lost + Found Aces" -> People will be convinced you are a MASTER sleight-of-hand magician.
09 "Partial Knowledge" -> A very commercial combination of a 'monte' routine and a 'traveling' card trick. A real work horse.
10 "Helter Skelter" -> A fun, commercial version of 'Triumph' with a strong presentational hook.
11 "Toss Revelation" -> A visually exciting trick you can perform with your (or borrowed) business cards.
12 "Rubber Room Rise" -> A powerful 'Ambitious Card' phase featuring a rubber band.
13 "Leatherbound" -> An extremely direct and 'low tech' card to wallet handling
14 "Penalty Box" -> An especially dramatic 'sandwich' effect.
15 "Selective Memory" -> Very original application of Garcia's 'Topper' technique
16 "Twice As Nice" -> A clever twist on a classic commercial card trick.
17 "Appearing Deck" -> The perfect way to start your own 'Invisible Deck' routine.
18 "Acrobatic Aces" -> A classic of close-up card magic, and for good reason!
19 "Two Card Transposition" -> A classic effect, and for good reason. Guaranteed mind-bender.
20 "Collapsible" -> It will take some time to make the special gimmick, but you'll have a PERFECT opening effect.
21 "In Hands Triumph" -> A very direct version of Dai Vernon's original 'Triumph' plot.
22 "T-Bone" -> An unusual approach to the classic 'torn + restored' card effect.
23 "Behind Your Back" -> One of the best 'self working' card effects EVER.
(Advanced)
24 "Questionable" -> A visual mystery, featuring a freshly drawn question mark.
25 "Stapled Joker" -> Jay's twist on the classic 'stapled' premise.
26 "Autopsy" -> A very different approach to a torn and restored card.
27 "Destined!" -> A fresh approach + presentation for Jay's 'Paperclipped.'
28 "Porous" -> The performer pushes his thumb through a playing card and then immediately restores it.
29 "State Of The Union" -> Jay's answer to the question, "How much magic can you squeeze out of a double-facer?"
30 "Nomad" -> A fresh tear mysteriously travels from one card to another.
31 "Just Joking" -> Jay's most performed 'sandwich trick!'
32 "Smuggler Aces" -> Jay's handling for the classic 'Open Travelers' plot.
33 "Piece De Resistance" -> The torn corner from a card, appears INSIDE the torn card!
34 "Signed Card In Ball Cap" -> A perfect 'impossible location' trick for walk around gigs.
35 "Walking Wounded" -> A two card transposition with a dramatic visual hook.
36 "Le Paul’s ‘Center Reverse’" -> An especially elegant and little-known card magic sleight
37 "Guaranteed" -> An especially commercial card trick involving a borrowed dollar bill.
38 "Mix Master" -> This color changing deck handling will take some practice, but it's a real mind-bender.
39 "Cross-Eyed" -> Sumer Seth demonstrates a fun trick using the 'Topper' technique
40 "IQ Test" -> This unusual card effect starts as an optical illusion, and finishes as a convincing mystery.
41 "Evidence" -> A sudden and inexplicable reversal of a series of events
42 "Shroud" -> A 'test conditions' version of Jay's classic 'Papperclipped' effect.
43 "In Case Of Tenkai" -> Handling sequence with the Tenkai Palm that really flows.
44 "Terra Unfirma" -> A very weird, very magical effect.
45 "Stuck-Up" -> A selected card appears between two cards that have been stapled together. Perfect 'closer.'
46 "Illogical Cut" -> Wonderfully 'fancy' cutting sequence. Definitely worth the practice.

Media Info

Общее
Полное имя : \[InsideDeception.com] Playing Card Magic Magic Training Videos\1 Basic\Acrobatic Aces.mp4
Формат : MPEG-4
Профиль формата : Base Media / Version 2
Идентификатор кодека : mp42 (mp42/mp41/isom/avc1)
Размер файла : 22,7 Мбайт
Продолжительность : 3 м. 39 с.
Режим общего битрейта : Переменный
Общий поток : 865 Кбит/сек
Дата кодирования : UTC 2013-08-17 20:52:41
Дата пометки : UTC 2013-08-17 20:52:41Видео
Идентификатор : 1
Формат : AVC
Формат/Информация : Advanced Video Codec
Профиль формата : [email protected]/* */
Параметр CABAC формата : Да
Параметр ReFrames формата : 4 кадра
Идентификатор кодека : avc1
Идентификатор кодека/Информация : Advanced Video Coding
Продолжительность : 3 м. 39 с.
Битрейт : 750 Кбит/сек
Ширина : 634 пикселя
Высота : 480 пикселей
Соотношение сторон : 4:3
Режим частоты кадров : Постоянный
Частота кадров : 29,970 (30000/1001) кадров/сек
Цветовое пространство : YUV
Субдискретизация насыщенности : 4:2:0
Битовая глубина : 8 бит
Тип развёртки : Прогрессивная
Бит/(Пиксели*Кадры) : 0.082
Размер потока : 19,7 Мбайт (87%)
Библиотека кодирования : x264 core 129 r2245 bc13772
Настройки программы : cabac=1 / ref=3 / deblock=1:0:0 / analyse=0x3:0x113 / me=hex / subme=7 / psy=1 / psy_rd=1.00:0.00 / mixed_ref=1 / me_range=16 / chroma_me=1 / trellis=1 / 8x8dct=1 / cqm=0 / deadzone=21,11 / fast_pskip=1 / chroma_qp_offset=-2 / threads=12 / lookahead_threads=2 / sliced_threads=0 / nr=0 / decimate=1 / interlaced=0 / bluray_compat=0 / constrained_intra=0 / bframes=3 / b_pyramid=2 / b_adapt=1 / b_bias=0 / direct=1 / weightb=1 / open_gop=0 / weightp=2 / keyint=90 / keyint_min=30 / scenecut=40 / intra_refresh=0 / rc_lookahead=40 / rc=2pass / mbtree=1 / bitrate=750 / ratetol=1.0 / qcomp=0.60 / qpmin=5 / qpmax=69 / qpstep=4 / cplxblur=20.0 / qblur=0.5 / vbv_maxrate=1125 / vbv_bufsize=3750 / nal_hrd=none / ip_ratio=1.40 / aq=1:1.00
Дата кодирования : UTC 2013-08-17 20:52:41
Дата пометки : UTC 2013-08-17 20:52:41Аудио
Идентификатор : 2
Формат : AAC
Формат/Информация : Advanced Audio Codec
Профиль формата : LC
Идентификатор кодека : 40
Продолжительность : 3 м. 39 с.
Продолжительность оригинала : 3 м. 39 с.
Вид битрейта : Переменный
Битрейт : 109 Кбит/сек
Каналы : 2 канала
Расположение каналов : Front: L R
Частота : 48,0 КГц
Частота кадров : 46,875 кадров/сек (1024 spf)
Метод сжатия : С потерями
Размер потока : 2,86 Мбайт (13%)
Размер потока оригинала : 2,87 Мбайт (13%)
Дата кодирования : UTC 2013-08-17 20:52:41
Дата пометки : UTC 2013-08-17 20:52:41

Скриншоты

Яндекс.Метрика
Рейтинг@Mail.ru