Хардкор / Hardcore Henry (2015) WEB-DL [H.264/1080p-LQ]

 

Создавать темы 12-Июл-2016 07:27

- Хардкор / Hardcore Henry (2015) WEB-DL [H.264/1080p-LQ] - Производство: Россия, США, Базелевс Продакшн, Robusto
Жанр: Боевик, Фантастика
Режиссер: Илья Найшуллер
Актеры: Шарлто Копли, Данила Козловский, Хейли Беннетт, Андрей Дементьев, Сергей Шнуров, Кирилл Серебренников ,Александр Паль, Светлана Устинова, Даша Чаруша, Равшана Куркова
Описание:
Прекрасная супружеская жизнь рядом с очаровательной Эстель — это все, что помнит главный герой после того, как просыпается в неизвестной научной лаборатории, где в чувства его приводит собственная жена. Но супруга тут же оказывается похищенной, и ничего не понимающий главный герой Генри уже вынужден преследовать монстра Акана, который украл его жену.
Теперь ради достижения цели Генри готов на многое. Но позже оказывается, что не только он один является врагом для Акана. У подозрительного Джимми тоже свои планы на злодея. Теперь вместе ребятам предстоит спасти Эстель и предотвратить попытку задействовать армию киборгов в борьбе с человечеством. Им предстоит бороться с самим воплощением зла.-Возраст: 18+ (зрителям, достигшим 18 лет. запрещено для детей)
Рейтинг MPAA: R (лицам до 17 лет обязательно присутствие взрослого)
Дата мировой премьеры: 12 сентября 2015
Дата премьеры в России: 7 апреля 2016

Продолжительность: 01:36:45
Качество видео: WEB-DL 1080p-LQ
Перевод: Дублированный (iTunes Russia)
Вид субтитров: Вшитые, отключаемые
Язык субтитров: Английский
Видео: AVC/H.264, 1920x1032, (1,85:1), 5223 Kbps, 23.976 fps
Аудио: AC3, 6 ch, 384 kbps - Русский
Аудио: AC3, 6 ch, 384 kbps - Английский

Mediainfo:

Общее
Уникальный идентификатор                 : 250408536684182144878716827544170730272 (0xBC62EE0EC7B1168FBB07EE02287B1320)
Полное имя                               : D:TorrentsЗавершенныеHardcore.Henry.2016.D.WEB-DL.1080p.mkv
Формат                                   : Matroska
Версия формата                           : Version 2
Размер файла                             : 4,05 Гбайт
Продолжительность                        : 1 ч. 36 м.
Общий поток                              : 5994 Кбит/сек
Название фильма                          : Hardcore.Henry.2015.1080p.WEB-DL.DD5.1.H264
Дата кодирования                         : UTC 2016-07-11 20:25:07
Программа кодирования                    : mkvmerge v8.3.0 ('Over the Horizon') 64bit
Библиотека кодирования                   : libebml v1.3.1 + libmatroska v1.4.2
Обложка                                  : Yes
Attachments                              : cover_land.jpg / small_cover.jpg / small_cover_land.jpg / cover.jpg
Видео
Идентификатор                            : 1
Формат                                   : AVC
Формат/Информация                        : Advanced Video Codec
Профиль формата                          : [email protected]
Параметр CABAC формата                   : Да
Параметр ReFrames формата                : 4 кадра
Идентификатор кодека                     : V_MPEG4/ISO/AVC
Продолжительность                        : 1 ч. 36 м.
Битрейт                                  : 5223 Кбит/сек
Ширина                                   : 1920 пикселей
Высота                                   : 1032 пикселя
Соотношение сторон                       : 1,85:1
Режим частоты кадров                     : Постоянный
Частота кадров                           : 23,976 кадра/сек
Цветовое пространство                    : YUV
Субдискретизация насыщенности            : 4:2:0
Битовая глубина                          : 8 бит
Тип развёртки                            : Прогрессивная
Бит/(Пиксели*Кадры)                      : 0.110
Размер потока                            : 3,53 Гбайт (87%)
Заголовок                                : Hardcore.Henry.2015.1080p.WEB-DL.DD5.1.H264
Язык                                     : English
Default                                  : Да
Forced                                   : Нет
Цветовой диапазон                        : Limited
Основные цвета                           : BT.709
Характеристики трансфера                 : BT.709
Коэффициенты матрицы                     : BT.709
Аудио #1
Идентификатор                            : 2
Формат                                   : AC-3
Формат/Информация                        : Audio Coding 3
Расширение режима                        : CM (complete main)
Параметр Endianness формата              : Big
Идентификатор кодека                     : A_AC3
Продолжительность                        : 1 ч. 36 м.
Вид битрейта                             : Постоянный
Битрейт                                  : 384 Кбит/сек
Каналы                                   : 6 каналов
Расположение каналов                     : Front: L C R, Side: L R, LFE
Частота                                  : 48,0 КГц
Частота кадров                           : 31,250 кадров/сек (1536 spf)
Метод сжатия                             : С потерями
Размер потока                            : 266 Мбайт (6%)
Язык                                     : Russian
Default                                  : Да
Forced                                   : Да
Аудио #2
Идентификатор                            : 3
Формат                                   : AC-3
Формат/Информация                        : Audio Coding 3
Расширение режима                        : CM (complete main)
Параметр Endianness формата              : Big
Идентификатор кодека                     : A_AC3
Продолжительность                        : 1 ч. 36 м.
Вид битрейта                             : Постоянный
Битрейт                                  : 384 Кбит/сек
Каналы                                   : 6 каналов
Расположение каналов                     : Front: L C R, Side: L R, LFE
Частота                                  : 48,0 КГц
Частота кадров                           : 31,250 кадров/сек (1536 spf)
Метод сжатия                             : С потерями
Размер потока                            : 266 Мбайт (6%)
Язык                                     : English
Default                                  : Нет
Forced                                   : Нет
Текст
Идентификатор                            : 4
Формат                                   : UTF-8
Идентификатор кодека                     : S_TEXT/UTF8
Идентификатор кодека/Информация          : UTF-8 Plain Text
Продолжительность                        : 1 ч. 28 м.
Битрейт                                  : 44 бит/сек
Count of elements                        : 780
Размер потока                            : 29,0 Кбайт (0%)
Язык                                     : English
Default                                  : Да
Forced                                   : Нет
Меню
00:00:00.000                             : en:Opening Sequence
00:04:00.000                             : en:I Love You Henry
00:12:07.000                             : en:Mercenaries
00:18:41.000                             : en:I'm Kidding!
00:26:08.000                             : en:You're Half Machine
00:34:15.000                             : en:I Can't Do It
00:39:20.000                             : en:Just Say Yes
00:43:57.000                             : en:I Was So Scared
00:48:52.000                             : en:Reboot
00:53:25.000                             : en:Don't Compromise My Lab
00:59:36.000                             : en:Under My Skin
01:07:16.000                             : en:No More Lab
01:11:20.000                             : en:The Memory Block
01:15:30.000                             : en:The Soldiers
01:24:06.000                             : en:You Didn't Make History
01:29:27.000                             : en:End Credits
Скриншоты:
Все одноименные релизы в КлубеВремя раздачи: 24/7. До первых 5 скачавших.
Яндекс.Метрика
Рейтинг@Mail.ru