Бумеранг / Boomerang (Реджинальд Хадлин / Reginald Hudlin) [1992 г., лирическая комедия, HD TVRIP-AVC] DVO + MVO [НТВ+]

 

Создавать темы 12-Июл-2016 04:59

-Бумеранг / Boomerang-- Производство: США, Eddie Murphy Productions, Imagine Films Entertainment, Paramount Pictures
Год выпуска: 1992 г.
Жанр: лирическая комедия
Продолжительность: 01:56:26Мировая премьера: 1 июля 1992
Дата выхода DVD: 30 марта 2010, «Юниверсал Пикчерс Рус»
Перевод: Профессиональный (двухголосый, закадровый)
Перевод 2: Профессиональный (многоголосый, закадровый) [НТВ+]
Режиссер: Реджинальд Хадлин / Reginald Hudlin-В ролях: Эдди Мерфи, Робин Гивенс, Холли Берри, Дэвид Алан Грайр, Мартин Лоуренс, Грейс Джонс, Джеффри Холдер, Эрта Китт, Крис Рок, Тиша Кэмпбелл-Описание: Никто не умеет соблазнять женщин так, как Маркус Грэм. В этой области он непревзойденный и уникальный специалист. Его чары действуют безотказно и наповал. Выбрав даму сердца, Маркус совращает ее самым изысканным образом и отпускает на все четыре стороны.После чего победитель гордо шествует дальше, оставляя за собой очередную несчастную с разбитым сердцем. И так могло бы продолжаться бесконечно, если бы на пути у ловеласа не встретились две неотразимые женщины, разбившие его чары в пух и прах. О том, смогут ли роковые дамы вылечить неисправимого бабника и наставить его на путь истинный, Вы узнаете, посмотрев эту очаровательную комедию.-
Качество видео: HD TVRIP-AVC
Контейнер: MKV
Видео кодек: MPEG4 AVC
Аудио кодек: AC3
Видео: AVC, 1024x576 (16:9), 23.976 fps, 2 621 Kbps (0.185 bit/pixel)
Аудио: AC-3, 48.0 KHz, 2 ch, 192 Kbps, CBR (Russian) - двухголосый
Аудио #2: AC-3, 48.0 KHz, 2 ch, 192 Kbps, CBR (Russian) - многоголосый (НТВ+)
Cубтитры: отсутствуют

Награды

Премия канала «MTV», 1993 год
Номинации (4):
Самая желанная женщина (Холли Берри)
Прорыв года (Холли Берри)
Лучшая комедийная роль (Эдди Мёрфи)
Лучшая песня — «End of the Road»

Рецензия

Комедия действительно очаровательная. И не просто комедия, а романтическая комедия с долей реализма. Фильм очень понравился, Эдди Мерфи как всегда неотразим, тогда еще совсем молоденькая звездочка — Берри показала себя настоящей актрисой.9 из 10

Media Info

Общее
Уникальный идентификатор : 194547615638570237057882654588827504456 (0x925C8202E65383D88A6DDEFBD3D28F48)
Полное имя : F:\Бумеранг\Bumerang.1992.HDTVRip-AVC.[pirat.ca].mkv
Формат : Matroska
Версия формата : Version 2
Размер файла : 2,45 Гбайт
Продолжительность : 1 ч. 56 м.
Общий поток : 3006 Кбит/сек
Дата кодирования : UTC 2016-07-10 20:45:19
Программа кодирования : mkvmerge v5.3.0 ('I could have danced') built on Feb 9 2012 10:38:07
Библиотека кодирования : libebml v1.2.3 + libmatroska v1.3.0
Attachments : poster (2).jpgВидео
Идентификатор : 1
Формат : AVC
Формат/Информация : Advanced Video Codec
Профиль формата : [email protected]/* */
Параметр CABAC формата : Да
Параметр ReFrames формата : 9 кадров
Идентификатор кодека : V_MPEG4/ISO/AVC
Продолжительность : 1 ч. 56 м.
Битрейт : 2621 Кбит/сек
Ширина : 1024 пикселя
Высота : 576 пикселей
Соотношение сторон : 16:9
Режим частоты кадров : Постоянный
Частота кадров : 23,976 (24000/1001) кадра/сек
Цветовое пространство : YUV
Субдискретизация насыщенности : 4:2:0
Битовая глубина : 8 бит
Тип развёртки : Прогрессивная
Бит/(Пиксели*Кадры) : 0.185
Размер потока : 2,08 Гбайт (85%)
Библиотека кодирования : x264 core 146 r2538 121396c
Настройки программы : cabac=1 / ref=9 / deblock=1:-3:-3 / analyse=0x3:0x133 / me=umh / subme=10 / psy=1 / psy_rd=1.00:0.00 / mixed_ref=1 / me_range=32 / chroma_me=1 / trellis=2 / 8x8dct=1 / cqm=0 / deadzone=21,11 / fast_pskip=1 / chroma_qp_offset=-2 / threads=12 / lookahead_threads=1 / sliced_threads=0 / nr=0 / decimate=0 / interlaced=0 / bluray_compat=0 / constrained_intra=0 / bframes=6 / b_pyramid=2 / b_adapt=2 / b_bias=0 / direct=3 / weightb=1 / open_gop=0 / weightp=2 / keyint=240 / keyint_min=23 / scenecut=40 / intra_refresh=0 / rc=2pass / mbtree=0 / bitrate=2621 / ratetol=1.0 / qcomp=0.60 / qpmin=0 / qpmax=69 / qpstep=4 / cplxblur=20.0 / qblur=0.5 / ip_ratio=1.40 / pb_ratio=1.30 / aq=2:1.00
Default : Да
Forced : НетАудио #1
Идентификатор : 2
Формат : AC-3
Формат/Информация : Audio Coding 3
Расширение режима : CM (complete main)
Параметр Endianness формата : Big
Идентификатор кодека : A_AC3
Продолжительность : 1 ч. 56 м.
Вид битрейта : Постоянный
Битрейт : 192 Кбит/сек
Каналы : 2 канала
Расположение каналов : Front: L R
Частота : 48,0 КГц
Частота кадров : 31,250 кадров/сек (1536 spf)
Метод сжатия : С потерями
Размер потока : 160 Мбайт (6%)
Заголовок : Двухголосый
Язык : Russian
Default : Да
Forced : НетАудио #2
Идентификатор : 3
Формат : AC-3
Формат/Информация : Audio Coding 3
Расширение режима : CM (complete main)
Параметр Endianness формата : Big
Идентификатор кодека : A_AC3
Продолжительность : 1 ч. 56 м.
Вид битрейта : Постоянный
Битрейт : 192 Кбит/сек
Каналы : 2 канала
Расположение каналов : Front: L R
Частота : 48,0 КГц
Частота кадров : 31,250 кадров/сек (1536 spf)
Метод сжатия : С потерями
Размер потока : 160 Мбайт (6%)
Заголовок : Многоголосый (НТВ+)
Язык : Russian
Default : Нет
Forced : Нет

Скриншот c названием фильма

Скриншоты

-Трейлер
Яндекс.Метрика
Рейтинг@Mail.ru