[ Сегодня на трекере фрилич! Идет свободное скачивание без начисления Download ]

Однажды ночью / The Night Of / Мини-сериал / Серии: 1-1 (8) (Стивен Зеллиан / Steven Zaillian, ...) [2016 г., драма, криминал, HDTV, 1080p] MVO (Novamedia) + Original (Eng) + Sub (Rus) [Обновляемая]

 

Создавать темы 12-Июл-2016 04:44

-Однажды ночью / The Night Of
(Мини-сериал)
-- Производство: США | HBO
Жанр: драма, криминал
Год выпуска: 2016 г.
Продолжительность: 1x ~01:00:00Перевод: Профессиональный (многоголосый, закадровый) [Novamedia]
Оригинальный аудиопоток: английскийРежиссер: Стивен Зеллиан / Steven Zaillian, Джеймс Марш / James Marsh-В ролях: Пурна Джаганнатан, Сиам М. Лафи, Джон Туртурро, Дэвид Чен, Амара Каран, Реджинальд Барнс, Крис Брайант, Ксавьер Кадо, Лорд Джамар, Кристофер Жиро-Описание: Темная судебная драма HBO от сценариста «Списка Шиндлера», «Пробуждения» и «Банд Нью-Йорка» Стивена Заилляна, снятая по мотивам сериала BBC «Уголовное преследование». Назир Хан или просто Наз, нью-йоркский студент пакистанского происхождения, однажды ночью воспользовавшись отцовским такси, отправляется на поиски приключений. И находит – прекрасную незнакомку. А дальше мечта оборачивается кошмаром. Наутро полиция обнаруживает труп девушки, а Наза обвиняют в убийстве. 8-серийный сериал – запутанная история расследования этого загадочного уголовного дела. Сможет ли система правосудия доказать свою прозрачность и справедливость? Проект стартовал еще в 2012 году, когда HBO заказал съемки пилота, получившего название “Crime”. Позже было принято решение о создании мини-сериала со звездой мафиозной телесаги «Клан Сопрано» Джеймсом Гандольфини в главной роли, который вскоре скоропостижно скончался. Исполнить роль адвоката вместо покойного Гандольфини согласился Роберт Де Ниро, но из-за несовпадения графиков съемок покинул проект. В итоге роль адвоката досталась следующему в списке претендентов – отмеченному призом Каннского фестиваля за «Бартона Финка» Джону Туртурро. Роль Наза исполнил талантливый британский актер пакистанского происхождения Риз Ахмед, известный по фильмам «Стрингер», «Фундаменталист поневоле», «Дорога на Гуантанамо».- -Качество видео: HDTV
Контейнер: MKV
Стандарт разрешения: 1080p
Видео кодек: H.264/AVC
Аудио кодек: AC3
Видео: 1920x1080 at 25.000 fps, ~5000 kbps avg
Аудио: Russian: 48 kHz, AC3, 3/2 (L,C,R,l,r) + LFE ch, ~576.00 kbps avg |Многоголосый закадровый, Студия "Novamedia" по заказу Amedia|
Аудио #2: English: 48 kHz, AC3, 3/2 (L,C,R,l,r) + LFE ch, ~640.00 kbps avgCубтитры: русские

Список серий

01. The Beach
02. Subtle Beast
03. A Dark Crate
04. The Art of War
05. The Season of the Witch
06. Samson and Delilah
07. Ordinary Death
08. The Call of the Wild

Media Info

Код:
Format                      : Matroska
Format version              : Version 4 / Version 2
File size                   : 3.27 GiB
Duration                    : 1h 15mn
Overall bit rate mode       : Variable
Overall bit rate            : 6 205 Kbps
Encoded date                : UTC 2016-07-10 15:05:49
Writing application         : mkvmerge v9.2.0 ('Photograph') 64bit
Writing library             : libebml v1.3.3 + libmatroska v1.4.4
DURATION                    : 01:12:15.080000000
NUMBER_OF_FRAMES            : 984
NUMBER_OF_BYTES             : 41716
_STATISTICS_WRITING_APP     : mkvmerge v9.2.0 ('Photograph') 64bit
_STATISTICS_WRITING_DATE_UT : 2016-07-10 15:05:49
_STATISTICS_TAGS            : BPS DURATION NUMBER_OF_FRAMES NUMBER_OF_BYTESVideo
ID                          : 1
Format                      : AVC
Format/Info                 : Advanced Video Codec
Format profile              : [email protected]/*  */
Format settings, CABAC      : Yes
Format settings, ReFrames   : 4 frames
Codec ID                    : V_MPEG4/ISO/AVC
Duration                    : 1h 15mn
Bit rate mode               : Variable
Bit rate                    : 4 866 Kbps
Maximum bit rate            : 40.0 Mbps
Width                       : 1 920 pixels
Height                      : 1 080 pixels
Display aspect ratio        : 16:9
Frame rate mode             : Constant
Frame rate                  : 25.000 fps
Color space                 : YUV
Chroma subsampling          : 4:2:0
Bit depth                   : 8 bits
Scan type                   : Progressive
Bits/(Pixel*Frame)          : 0.094
Stream size                 : 2.56 GiB (78%)
Language                    : English
Default                     : Yes
Forced                      : NoAudio #1
ID                          : 2
Format                      : AC-3
Format/Info                 : Audio Coding 3
Mode extension              : CM (complete main)
Format settings, Endianness : Big
Codec ID                    : A_AC3
Duration                    : 1h 15mn
Bit rate mode               : Constant
Bit rate                    : 576 Kbps
Channel(s)                  : 6 channels
Channel positions           : Front: L C R, Side: L R, LFE
Sampling rate               : 48.0 KHz
Bit depth                   : 16 bits
Compression mode            : Lossy
Stream size                 : 311 MiB (9%)
Language                    : Russian
Default                     : Yes
Forced                      : NoAudio #2
ID                          : 3
Format                      : AC-3
Format/Info                 : Audio Coding 3
Mode extension              : CM (complete main)
Format settings, Endianness : Big
Codec ID                    : A_AC3
Duration                    : 1h 15mn
Bit rate mode               : Constant
Bit rate                    : 640 Kbps
Channel(s)                  : 6 channels
Channel positions           : Front: L C R, Side: L R, LFE
Sampling rate               : 48.0 KHz
Bit depth                   : 16 bits
Compression mode            : Lossy
Stream size                 : 345 MiB (10%)
Language                    : English
Default                     : No
Forced                      : NoText
ID                          : 4
Format                      : UTF-8
Codec ID                    : S_TEXT/UTF8
Codec ID/Info               : UTF-8 Plain Text
Language                    : Russian
Default                     : No
Forced                      : No

Скриншот c названием фильма

Скриншоты

Яндекс.Метрика
Рейтинг@Mail.ru