MMA. UFC 200. Miesha Tate vs. Amanda Nunes. Undercard + Main Card [09.07] (2016) 720p | 25fps (RU|INT)

 

Создавать темы 11-Июл-2016 12:47

UFC 200
Miesha Tate vs. Amanda Nunes
Undercard + Main Card
Вид спорта: MMA
Участники: Main Card:
Miesha Tate vs. Amanda Nunes TITLE FIGHT
Brock Lesnar vs. Mark Hunt
Daniel Cormier vs. Anderson Silva
Jose Aldo vs. Frankie Edgar TITLE FIGHT
Cain Velasquez vs. Travis Browne
Undercard
Julianna Pena vs. Cat Zingano
Kelvin Gastelum vs. Johny Hendricks
T.J. Dillashaw vs. Raphael Assuncao
Sage Northcutt vs. Enrique Marin
Комментарий: Русский, Интершум
Описание: UFC 200 Las Vegas Nevada st. / Miesha Tate vs. Amanda Nunes / Undercard + Main Card
Автор записи: Mr. Drax

Качество: HDTVRip
Формат видео: MKV
Видео: H.264, 1280x720, 25 fps, 3500 Kbps
Свойства аудио RU/INT: 48.0 KHz, 2 ch stereo, 192 kbps

Продолжительность

01:47:50

Скриншоты

Media Info

Полное имя : H:Other sportsUFC 200. Miesha Tate vs. Amanda Nunes. Undercard + Main Card.10.07.2016.HDTVRip720p.mkv
Формат : Matroska
Версия формата : Version 4 / Version 2
Размер файла : 7,69 Гбайт
Продолжительность : 4 ч. 43 м.
Общий поток : 3890 Кбит/сек
Программа кодирования : Lavf56.0.100
Библиотека кодирования : Lavf56.0.100
Видео
Идентификатор : 1
Формат : AVC
Формат/Информация : Advanced Video Codec
Профиль формата : [email protected]
Параметр CABAC формата : Да
Параметр ReFrames формата : 4 кадра
Идентификатор кодека : V_MPEG4/ISO/AVC
Продолжительность : 4 ч. 43 м.
Битрейт : 3500 Кбит/сек
Ширина : 1280 пикселей
Высота : 720 пикселей
Соотношение сторон : 16:9
Режим частоты кадров : Постоянный
Частота кадров : 25,000 кадров/сек
Цветовое пространство : YUV
Субдискретизация насыщенности : 4:2:0
Битовая глубина : 8 бит
Тип развёртки : Прогрессивная
Бит/(Пиксели*Кадры) : 0.152
Размер потока : 6,78 Гбайт (88%)
Библиотека кодирования : x264 core 142 r2453 ea0ca51
Настройки программы : cabac=1 / ref=2 / deblock=1:0:0 / analyse=0x3:0x113 / me=hex / subme=6 / psy=1 / psy_rd=1.00:0.00 / mixed_ref=1 / me_range=16 / chroma_me=1 / trellis=1 / 8x8dct=1 / cqm=0 / deadzone=21,11 / fast_pskip=1 / chroma_qp_offset=-2 / threads=12 / lookahead_threads=2 / sliced_threads=0 / nr=0 / decimate=1 / interlaced=0 / bluray_compat=0 / constrained_intra=0 / bframes=3 / b_pyramid=2 / b_adapt=1 / b_bias=0 / direct=1 / weightb=1 / open_gop=0 / weightp=1 / keyint=250 / keyint_min=25 / scenecut=40 / intra_refresh=0 / rc_lookahead=30 / rc=abr / mbtree=1 / bitrate=3500 / ratetol=1.0 / qcomp=0.60 / qpmin=0 / qpmax=69 / qpstep=4 / ip_ratio=1.40 / aq=1:1.00
Default : Да
Forced : Нет
Аудио #1
Идентификатор : 2
Формат : AC-3
Формат/Информация : Audio Coding 3
Расширение режима : CM (complete main)
Параметр Endianness формата : Big
Идентификатор кодека : A_AC3
Продолжительность : 4 ч. 43 м.
Вид битрейта : Постоянный
Битрейт : 192 Кбит/сек
Каналы : 2 канала
Расположение каналов : Front: L R
Частота : 48,0 КГц
Битовая глубина : 32 бит
Метод сжатия : С потерями
Задержка видео : -957 мс.
Размер потока : 389 Мбайт (5%)
Библиотека кодирования : Lavc56.0.100 ac3
Язык : Russian
Default : Да
Forced : Нет
Аудио #2
Идентификатор : 3
Формат : AC-3
Формат/Информация : Audio Coding 3
Расширение режима : CM (complete main)
Параметр Endianness формата : Big
Идентификатор кодека : A_AC3
Продолжительность : 4 ч. 43 м.
Вид битрейта : Постоянный
Битрейт : 192 Кбит/сек
Каналы : 2 канала
Расположение каналов : Front: L R
Частота : 48,0 КГц
Битовая глубина : 32 бит
Метод сжатия : С потерями
Задержка видео : -957 мс.
Размер потока : 389 Мбайт (5%)
Библиотека кодирования : Lavc56.0.100 ac3
Default : Да
Forced : Нет
Яндекс.Метрика
Рейтинг@Mail.ru