Крикуны / Screamers (Кристиан Дюге / Christian Duguay) [1995 г., ужасы, фантастика, боевик, триллер, приключения, WEB-DL, 720p] Dub [R5 Русский ВидеоCервис] + DVO [R5 Украинский 1+1] + Sub (Rus)

 

Создавать темы 11-Июл-2016 05:20

-Крикуны / Screamers-- Производство: Канада, США, Япония, Allegro Films, Fries Film Group, Fuji Eight Company Ltd., Super Écran (Premier Choix: TVEC Inc.), The Movie Network (TMN), Triumph Films, ...
Год выпуска: 1995 г.
Жанр: ужасы, фантастика, боевик, триллер, приключения
Продолжительность: 01:48:22Мировая премьера: 8 сентября 1995
Дата выхода DVD: 14 января 1997, «Columbia/Sony»
Перевод: Профессиональный (полное дублирование) [R5 Русский ВидеоCервис]
Перевод 2: Профессиональный (двухголосый, закадровый) [R5 Украинский 1+1]
Режиссер: Кристиан Дюге / Christian Duguay-В ролях: Питер Уэллер, Рой Дюпюи, Дженнифер Рубин, Эндрю Лоэр, Чарльз Эдвин Пауэлл, Рон Уайт, Майкл Калоз, Лилиана Коморовска, Джейсон Кавалье, Лени Паркер-Описание: 2078 год. Офицер Содружества — армии повстанцев — полковник Джозеф Хендрикссон назначен руководить обороной заставы на планете Сириус-6Б, ставшей опорным пунктом в противостоянии с НЭБ — Новым Экономическим Блоком. Главный козырь Содружества в войне с НЭБ — это Крикуны, сверхновое оружие, запрограммированное на уничтожение всех форм жизни.-
Качество видео: WEB-DL
Контейнер: MKV
Стандарт разрешения: 720p
Видео кодек: MPEG4 AVC
Аудио кодек: AC3
Видео: 1280x716 at 23.976 fps, MPEG-4 AVC, ~4000 kbps avg
Аудио: Russian: 48 kHz, AC3, 3/2 (L,C,R,l,r) + LFE ch, ~384.00 kbps avg |Дубляж, (ВидеоCервис) [R5]
Аудио #2: Ukrainian: 48 kHz, AC3, 2/0 (L,R) ch, ~192.00 kbps avg |Двухголосый закадровый, (1+1)|
Cубтитры: русские
Формат субтитров: softsub (SRT)
Доп. информация о субтитрах: включаемые R5

Доп. информация

Картина поставлена по повести Филипа К. Дика «Вторая модель».
Похожая на шахматы настольная игра, в которую играют в начале фильма — это шумерская так называемая «царская игра Ура», напоминающая древнеегипетский сенет. Две доски для игры в «царскую игру» были обнаружены в гробницах времен первой династии Ура (примерно XXVI век до н. э.), но её правила до наших дней не дошли.
Рабочее название фильма — «Клещи».
Фильм целиком снимался в Канаде, в степях Квебека и на Олимпийском стадионе Монреаля.
Когда Командор Хэндриксон и Туз Джефферсон подходят к базе Блока, Бэкер стучит ножом по трубе: три отрывистых удара, три удара с большими паузами. В азбуке Морзе этот код означает «SO».
Над картиной работал известный художник-футурист DUSSO. В частности, ему принадлежат декорации разрушенного города.
У Хэндриксона в кабинете играет ария «Madamina, il catalogo e» questo» из оперы «Дон Жуан, или Наказанный развратник» Моцарта.
В сцене, где Хендриксон, подходит к своему бункеру, в разговоре с Чаком по видеофону он просит позвать «Дона Джованни». Это оригинальное имя Дона Жуана — Don Giovanni. При этом Хендриксон представляется Чаку Вольфгангом. Так зовут автора оперы, Вольфганга Амадея Моцарта.
Первая версия сценария Дэна О’Бэннона была написана им в начале 1981 года.
Если внимательно присмотреться к «футуристическим» винтовкам, используемых в фильме, то заметно, что это замаскированный ручной пулемет РПК.
Винтовка НЭБ это слегка видоизмененное 35-мм травматическое оружие MR 35 Punch производства компании Manurhin.
Монолог Беккера — крайне вольная цитата из третьей части «Генриха VI» (акт V, сцена 6) Уильяма Шекспира. Там этот монолог произносит герцог Глостер (будущий Ричард III), убивая короля Генриха. Вариант Беккера сокращен, осовременен и содержит ненормативную лексику. Идея ввести шекспировскую цитату в речь крикуна принадлежала актеру, исполнявшему его роль — Рою Дюпюи.

Рецензия

Классный фильм. Интересный сюжет, хорошая игра актеров, непредсказуемая концовка фильма не заставят зрителя быть равнодушным по этому фантастическому фильму. Советую посмотреть.10 из 10

Media Info

Общее
Уникальный идентификатор : 250157480722779501313780730770361198959 (0xBC32940B0D6EF5CCA045B13D5BFCA96F)
Полное имя : J:\Крикуны\Krikuny.1995.720p.WEB-DL.AVC.[pirat.ca].mkv
Формат : Matroska
Версия формата : Version 2
Размер файла : 3,45 Гбайт
Продолжительность : 1 ч. 48 м.
Общий поток : 4558 Кбит/сек
Дата кодирования : UTC 2016-07-10 14:11:34
Программа кодирования : mkvmerge v5.3.0 ('I could have danced') built on Feb 9 2012 10:38:07
Библиотека кодирования : libebml v1.2.3 + libmatroska v1.3.0Видео
Идентификатор : 1
Формат : AVC
Формат/Информация : Advanced Video Codec
Профиль формата : [email protected]/* */
Параметр CABAC формата : Нет
Параметр ReFrames формата : 2 кадра
Идентификатор кодека : V_MPEG4/ISO/AVC
Продолжительность : 1 ч. 48 м.
Битрейт : 3891 Кбит/сек
Ширина : 1280 пикселей
Высота : 716 пикселей
Соотношение сторон : 16:9
Соотношение сторон в оригинале : 16:9
Режим частоты кадров : Постоянный
Частота кадров : 23,976 (24000/1001) кадра/сек
Цветовое пространство : YUV
Субдискретизация насыщенности : 4:2:0
Битовая глубина : 8 бит
Тип развёртки : Прогрессивная
Бит/(Пиксели*Кадры) : 0.177
Размер потока : 2,95 Гбайт (85%)
Заголовок : WEB-DL 720p
Язык : English
Default : Да
Forced : Нет
Цветовой диапазон : Limited
Основные цвета : BT.709
Характеристики трансфера : BT.709
Коэффициенты матрицы : BT.709Аудио #1
Идентификатор : 2
Формат : AC-3
Формат/Информация : Audio Coding 3
Расширение режима : CM (complete main)
Параметр Endianness формата : Big
Идентификатор кодека : A_AC3
Продолжительность : 1 ч. 48 м.
Вид битрейта : Постоянный
Битрейт : 384 Кбит/сек
Каналы : 6 каналов
Расположение каналов : Front: L C R, Side: L R, LFE
Частота : 48,0 КГц
Частота кадров : 31,250 кадров/сек (1536 spf)
Метод сжатия : С потерями
Размер потока : 298 Мбайт (8%)
Заголовок : AC3 5.1 384Kbps | Дубляж (ВидеоCервис) [R5] |
Язык : Russian
Default : Да
Forced : НетАудио #2
Идентификатор : 3
Формат : AC-3
Формат/Информация : Audio Coding 3
Расширение режима : CM (complete main)
Параметр Endianness формата : Big
Идентификатор кодека : A_AC3
Продолжительность : 1 ч. 48 м.
Вид битрейта : Постоянный
Битрейт : 192 Кбит/сек
Каналы : 2 канала
Расположение каналов : Front: L R
Частота : 48,0 КГц
Частота кадров : 31,250 кадров/сек (1536 spf)
Метод сжатия : С потерями
Размер потока : 149 Мбайт (4%)
Заголовок : AC3 2.0 192Kbps | Профессиональный, двухголосый (1+1) |
Язык : Ukrainian
Default : Нет
Forced : НетТекст
Идентификатор : 4
Формат : UTF-8
Идентификатор кодека : S_TEXT/UTF8
Идентификатор кодека/Информация : UTF-8 Plain Text
Заголовок : Full [R5]
Язык : Russian
Default : Нет
Forced : НетМеню
00:00:00.000 : en:Start
00:01:58.000 : en:Sirius 6b
00:05:54.000 : en:Calvary Attack
00:08:55.000 : en:Retrieval Expedition
00:11:14.000 : en:Col. Hendricksson
00:18:52.000 : en:Crash Site
00:25:56.000 : en:"We Are Betrayed"
00:30:01.000 : en:Peace Mission
00:32:10.000 : en:History Lesson
00:35:58.000 : en:David
00:39:33.000 : en:Campsite
00:41:55.000 : en:An Upgrade
00:45:18.000 : en:Not A Real Boy
00:48:51.000 : en:Down To The Bunker
00:52:00.000 : en:Jessica
00:59:19.000 : en:Into The Tunnels
01:02:11.000 : en:The Command Center
01:04:27.000 : en:Uplink Interrupted
01:08:00.000 : en:Reading The Tags
01:10:07.000 : en:"Can I Come With You?"
01:11:22.000 : en:Wasted For No Reason
01:16:34.000 : en:Becker & The Rookie
01:18:57.000 : en:Type 3
01:23:11.000 : en:Type 2
01:26:33.000 : en:"I Had To Know"
01:30:57.000 : en:New Alamo Site
01:32:19.000 : en:Preparing To Launch
01:39:18.000 : en:Killing Each Other

Скриншот c названием фильма

Скриншоты

-Трейлер
Яндекс.Метрика
Рейтинг@Mail.ru