Всё или ничего / The Longest Yard (Питер Сигал / Peter Segal) [2005 г., комедия, криминал, спорт, WEB-DL, 720p] Dub [Невафильм 2005] + MVO [Новий канал & К1] + Sub (Rus)

 

Создавать темы 11-Июл-2016 05:18

-Всё или ничего / The Longest Yard-- Производство: США, Callahan Filmworks, Columbia Pictures Corporation, Happy Madison Productions, MTV Films, Paramount Pictures, ...
Год выпуска: 2005 г.
Жанр: комедия, криминал, спорт
Продолжительность: 01:53:27Мировая премьера: 19 мая 2005
Российская премьера: 21 июля 2005, «Каскад»
Дата выхода DVD: 17 ноября 2005, «Columbia/Sony»
Перевод: Профессиональный (полное дублирование) [Невафильм 2005]
Перевод 2: Профессиональный (многоголосый, закадровый) [Новий канал & К1]
Режиссер: Питер Сигал / Peter Segal-В ролях: Адам Сэндлер, Крис Рок, Берт Рейнолдс, Nelly, Майкл Ирвин, Уолтер Уильямсон, Билл Голдберг, Терри Крюс, Боб Сапп, Николас Туртурро
Роли дублировали: Анатолий Петров, Геннадий Смирнов, Валерий Кухарешин, Юрий Лазарев, Валерий Соловьев, ...-Описание: Профессиональный футболист, бывший игрок Национальной Футбольной Лиги Пол Кру попадает в тюрьму за вождение автомобиля в нетрезвом состоянии. Начальник тюрьмы Хэйзен, задумавший организовать футбольный матч между охранниками и заключенными, предлагает Полу собрать свою команду. При этом он обещает сократить футболисту срок, если победу одержат охранники. Согласится ли Кру поступиться своими принципами ради скорейшего освобождения или же достойно поборется за победу?-
Качество видео: WEB-DL
Контейнер: MKV
Стандарт разрешения: 720p
Видео кодек: MPEG4 AVC
Аудио кодек: AC3
Видео: MPEG-4 AVC, 3845 Кбит/с, 1280x542, 23.976 кадр/с
Аудио: Русский (AC3, 6 ch, 448 Кбит/с) - Дублированный: Невафильм
Аудио #2: Украинский (AC3, 2 ch, 192 Кбит/с) - Профессиональный многоголосый: Новий канал & К1
Cубтитры: русские
Формат субтитров: softsub (SRT)
Доп. информация о субтитрах: включаемые

Доп. информация

На одну из ролей пробовался Snoop Dogg.
Велись переговоры с Гэри Олдманом на участие в роли заключённого, но они не увенчались успехом.
Берт Рейнольдс и Эд Лоутер играли и в оригинальном фильме, и в ремейке.
Майкл Ирвин и Билл Романовски в фильме играли под номерами 88 и 53. Под такими же номерами они играют и в NFL.
Тим Херлихи, любимый сценарист Адама Сэндлера, был специально приглашён для того, чтобы переписать несколько диалогов. Он не указан в титрах.
Берт Рейнольдс в фильме играет под номером 22. Под этим же номером он играл в оригинальном фильме.

Награды

Премия канала «MTV», 2006 год
Номинации (2):
Прорыв года (Нелли)
Лучшая комедийная роль (Адам Сэндлер)

Рецензия

«Не хотите мне помочь, сам всё сделаю!»Когда первый раз начинал смотреть этот фильм, то не ждал чего-то грандиозного и запоминающегося, так как не очень понимаю правила американского футбола и не являюсь фанатом Адама Сэндлера. К тому же знал, что это римейк одноимённого фильма 1974 года. Но уже на первых минутах понял, что атмосфера, происходящего на экране, притягивает, заставляет переживать и симпатизировать герою Сэндлера в недалёком прошлом профессиональному футболисту Полу Кру.-Тебе хорошо заплатят за рекламу лапши!Фильм смотрится на одном дыхании! Только что Кру разбивает бэнтли в прямом эфире, затем от удара в грудь вылетает из автобуса и вот уже по просьбе начальника тюрьмы Хазена (Джеймс Кромуэлл) набирает команду из заключённых, чтобы с крупным счётом уступить в товарищеском матче полупрофессиональной команде охранников.- Ты мог грабить банки, мог толкать крэк, мог украсть у бабушки пенсию и никого бы это не бодало! А так нечестно играть в футбол как ты — это не по-американски!Герою вновь приходится завоёвывать уважение, но теперь он не в Лос Анджелесе, а в богом забытой тюрьме, а его окружение это не фанаты футбольных баталий, а уголовники, отбросы общества. И это действительно захватывает. Как Кру «вербует футболистов» себе в команду, играет в «грязный» баскетбол, выдерживая всё новые и новые удары и так далее…- Тут дело в гордости, не в боли.- Он уже весь синий от гордости!Что же касается самого футбольного матча, то здесь просто нет слов! Все эти силовые приёмы, замедленные падения и повторы ставят большущий плюс фильму. Они погружают тебя с головой в спортивную атмосферу, заставляя забыть, что это ненастоящее спортивное состязание. Ну и конечно же ожидаемая послематчевая развязка. Но в то же время ловишь себя на том, что сидишь и улыбаешься до ушей от просмотренного.- Стреляй! Огонь!- Он поднял мяч…Актёры. Адам Сэндлер раскрылся неожиданно далеко не в комедийной роли,отлично сыграли своих персонажей Берт Рейнолдс, Джеймс Кромуэлл, Крис Рок. Стоит отметить отдельно «чернокожую братию» и особенно Николаса Туртурро в роли Брюси.Музыкальное сопровождение тоже на высоком уровне. Оно просто и ненавязчиво вливается в тюремный стиль, что добавляет ещё пару ярких мазков на эту картину. Например, песни Here Comes The Boom, Errtime, Fly Away, исполненные Нелли, который к тому же сыграл яркую роль Мэггета, я сразу добавил в свой плейлист.В итоге получается зрелищный, смотрящийся на одном дыхании, пропитанный спортом, смешной, а моментами и серьёзный кинопродукт. Советую посмотреть всем, кто хочет свободным вечером просто сесть на диван, расслабиться и от души посмеяться!10 из 10

Media Info

Общее
Уникальный идентификатор : 236196043125054074009734108987893202653 (0xB1B1B4063A5F91EC8D34E05D648FBEDD)
Полное имя : F:\Всё или ничего\Vsjo ili nichego.2005.720p.WEB-DL.AVC.[pirat.ca].mkv
Формат : Matroska
Версия формата : Version 2
Размер файла : 3,63 Гбайт
Продолжительность : 1 ч. 53 м.
Общий поток : 4576 Кбит/сек
Дата кодирования : UTC 2016-07-10 14:56:15
Программа кодирования : mkvmerge v5.3.0 ('I could have danced') built on Feb 9 2012 10:38:07
Библиотека кодирования : libebml v1.2.3 + libmatroska v1.3.0
Обложка : Yes
Attachments : cover.jpgВидео
Идентификатор : 1
Формат : AVC
Формат/Информация : Advanced Video Codec
Профиль формата : [email protected]/* */
Параметр CABAC формата : Нет
Параметр ReFrames формата : 2 кадра
Идентификатор кодека : V_MPEG4/ISO/AVC
Продолжительность : 1 ч. 53 м.
Битрейт : 3845 Кбит/сек
Ширина : 1280 пикселей
Высота : 542 пикселя
Соотношение сторон : 2,35:1
Режим частоты кадров : Постоянный
Частота кадров : 23,976 кадра/сек
Цветовое пространство : YUV
Субдискретизация насыщенности : 4:2:0
Битовая глубина : 8 бит
Тип развёртки : Прогрессивная
Бит/(Пиксели*Кадры) : 0.231
Размер потока : 3,05 Гбайт (84%)
Язык : English
Default : Да
Forced : Нет
Цветовой диапазон : Limited
Основные цвета : BT.709
Характеристики трансфера : BT.709
Коэффициенты матрицы : BT.709
Statistics Tags Issue : mkvmerge v8.6.1 ('Flying') 64bit 2015-12-10 02:47:43 / mkvmerge v5.3.0 ('I could have danced') built on Feb 9 2012 10:38:07 2016-07-10 14:56:15
FromStats_BitRate : 3933375
FromStats_Duration : 01:53:27.892000000
FromStats_FrameCount : 163226
FromStats_StreamSize : 3347249456Аудио #1
Идентификатор : 2
Формат : AC-3
Формат/Информация : Audio Coding 3
Расширение режима : CM (complete main)
Параметр Endianness формата : Big
Идентификатор кодека : A_AC3
Продолжительность : 1 ч. 53 м.
Вид битрейта : Постоянный
Битрейт : 448 Кбит/сек
Каналы : 6 каналов
Расположение каналов : Front: L C R, Side: L R, LFE
Частота : 48,0 КГц
Частота кадров : 31,250 кадров/сек (1536 spf)
Метод сжатия : С потерями
Размер потока : 364 Мбайт (10%)
Заголовок : Dub
Язык : Russian
Default : Да
Forced : Нет
Statistics Tags Issue : mkvmerge v8.6.1 ('Flying') 64bit 2015-12-10 02:47:43 / mkvmerge v5.3.0 ('I could have danced') built on Feb 9 2012 10:38:07 2016-07-10 14:56:15
FromStats_BitRate : 448000
FromStats_Duration : 01:53:27.904000000
FromStats_FrameCount : 212747
FromStats_StreamSize : 381242624Аудио #2
Идентификатор : 3
Формат : AC-3
Формат/Информация : Audio Coding 3
Расширение режима : CM (complete main)
Параметр Endianness формата : Big
Идентификатор кодека : A_AC3
Продолжительность : 1 ч. 53 м.
Вид битрейта : Постоянный
Битрейт : 192 Кбит/сек
Каналы : 2 канала
Расположение каналов : Front: L R
Частота : 48,0 КГц
Частота кадров : 31,250 кадров/сек (1536 spf)
Метод сжатия : С потерями
Размер потока : 156 Мбайт (4%)
Заголовок : MVO, Новий канал & К1
Язык : Ukrainian
Default : Нет
Forced : Нет
Statistics Tags Issue : mkvmerge v8.6.1 ('Flying') 64bit 2015-12-10 02:47:43 / mkvmerge v5.3.0 ('I could have danced') built on Feb 9 2012 10:38:07 2016-07-10 14:56:15
FromStats_BitRate : 192000
FromStats_Duration : 01:53:27.904000000
FromStats_FrameCount : 212747
FromStats_StreamSize : 163389696Текст
Идентификатор : 4
Формат : UTF-8
Идентификатор кодека : S_TEXT/UTF8
Идентификатор кодека/Информация : UTF-8 Plain Text
Язык : Russian
Default : Нет
Forced : Нет
Statistics Tags Issue : mkvmerge v8.6.1 ('Flying') 64bit 2015-12-10 02:47:43 / mkvmerge v5.3.0 ('I could have danced') built on Feb 9 2012 10:38:07 2016-07-10 14:56:15
FromStats_BitRate : 109
FromStats_Duration : 01:45:06.025000000
FromStats_FrameCount : 1288
FromStats_StreamSize : 86463Меню
00:00:00.000 : en:Trained Monkey
00:05:43.000 : en:A Very Public Break-Up
00:08:25.000 : en:Welcome To Allenville
00:14:52.000 : en:Hornet's Nest
00:21:30.000 : en:Football Tree-Outs
00:26:55.000 : en:Nate Scarborough
00:29:58.000 : en:Recruiting
00:35:00.000 : en:One On One
00:41:53.000 : en:Brokeded Nose
00:45:34.000 : en:Snitch
00:49:20.000 : en:There Goes The Neighborhood
00:53:51.000 : en:Acting Like Convicts
01:00:51.000 : en:Caretaker's Gifts
01:08:31.000 : en:Mean Machine
01:13:14.000 : en:Unsportsmanlike Conduct
01:19:25.000 : en:Schoolyard Bull$#!+
01:24:52.000 : en:Quite A Predicament
01:31:36.000 : en:Confession
01:38:01.000 : en:The Old Man's Turn
01:44:14.000 : en:Game Ball

Скриншот c названием фильма

Скриншоты

-Трейлер
Яндекс.Метрика
Рейтинг@Mail.ru