[ Сегодня на трекере фрилич! Идет свободное скачивание без начисления Download ]

Тёрнер и Хуч / Turner & Hooch (Роджер Споттисвуд / Roger Spottiswoode) [1989 г., триллер, драма, комедия, криминал, BDRip-AVC] Dub [СВ-Дубль (моно)] + Sub (Rus)

 

Создавать темы 11-Июл-2016 05:15

-Тёрнер и Хуч / Turner & Hooch-- Производство: США, Silver Screen Partners IV, Touchstone Pictures
Год выпуска: 1989 г.
Жанр: триллер, драма, комедия, криминал
Продолжительность: 01:39:31Мировая премьера: 28 июля 1989
Перевод: Профессиональный (полное дублирование) [СВ-Дубль (моно)]
Режиссер: Роджер Споттисвуд / Roger Spottiswoode-В ролях: Том Хэнкс, Мэр Уиннингхэм, Крэйг Т. Нельсон, Реджинальд ВелДжонсон, Скотт Полин, Дж. К. Куин, Джон МакИнтайр, Дэвид Нелл, Эбби Роу Смит, Кевин Сканнелл
Роли дублировали: Владимир Вихров, Елена Соловьева, Рудольф Панков, Александр Рыжков, Владимир Басов мл., ...-Описание: Профессиональный сыщик Скотт Тернер ненавидит беспорядок. В его жизни все заранее спланировано и предсказуемо. Хуч — самый неспокойный, самый невоспитанный и абсолютно неподдающийся дрессировке пес.Не повезет тому несчастному хозяину, к которому он попадет. Тернер слишком поздно понял, кого впустил в свой дом. Но шумные ссоры ни к чему не привели. Возможно, лучший способ одолеть своего врага, это подружиться с ним.-
Качество видео: BDRip-AVC
Контейнер: MKV
Видео кодек: MPEG4 AVC
Аудио кодек: AC3
Видео: 3427 Кбит/с, 1024x556, 23.976 кадр/с
Аудио: Русский (AC3, 1 ch, 256 Кбит/с) Дублированный [СВ-Дубль]
Cубтитры: русские
Формат субтитров: softsub (SRT)
Доп. информация о субтитрах: включаемые

Доп. информация

Пёс Хуч — породы бордоский дог.

Рецензия

Настоящая дружба.Фильм потрясающий, добрый, весёлый и драматичный, очень глубокий и трогательный до глубины души. Это один из таких фильмов, которые помогают нам лучше понять себя и окружающий нас мир, делают нас терпимее и мудрее.Скотт Тёрнер молодой полицейский на грани своей карьеры, берётся за последнее дело, потому что пострадал близкий ему человек и судьба посылает ему неожиданный подарок — четвероногого напарника. Но вот рад ли будет Тёрнер такому сюрпризу… хотя это не так уж важно, ведь выбора то у него особо и нет.Что можно сказать об актёрах? Том Хэнкс, как всегда великолепен и каждый фильм с его участием я смотрю с огромным удовольствием. Пёс Хуч — это что-то невероятное, обаятельный питомец, шаловливый и смелый с удивительно человеческим блеском в глазах. На протяжении фильма, вместе они выполняют столько забавных трюков, что оторваться совершенно невозможно.Как гласит одна мудрость: ваш питомец это часть вашей жизни, но для вашего питомца Вы вся жизнь. Берегите животных.«Если я оставлю тебя в машине, ты её сгрызешь» © Тёрнер.10 из 10Смех сквозь слезы.«Тернер и Хуч» помню еще с детства. Как же не запомнить?! Я тогда после просмотра рыдала до посинения. Сказать, что фильм атмосферный и со смыслом всё равно что ничего не сказать. «Тернер и Хуч» — это шедевр кино подобного жанра! В нём нельзя, на мой взгляд, рассматривать «кирпичики» по отдельности. Только синтез, только получившийся дом, здание, в котором хочется жить и жить…Тернер и Хуч» — фильм-теремок.Теперь подробнее…Как уже было сказано выше, рассматривать отдельные части фильма в этой рецензии я не буду, потому что конструктивной критики он не потерпит. Потому ограничусь лишь выплеском эмоций на электронной бумаге, т. е. в данной рецензии.Произвело впечатление. Не мимолетное и даже не долголетнее, а впечатление на всю жизнь. Отчего так получилось? Есть фильмы, которые цепляют за душу. Забирают её и уже не отдают, (так что можно сказать, я почти бездушный человек)именно к этой категории относится «Тернер и Хуч». Он забрал кусочек души и до сих пор хранит её где-то в каморке, в сундучке для кусочков. И, знаете, я ничуть не жалею! Потому что этот«теремок» — удивительное собрание самых замечательных качеств человека: доброты, преданности, дружбы, любви, сострадания, чести, совести. В таком домике я бы не отказалась жить! Безусловно…Мой высший балл. И… БРАВО!!!10 из 10

Media Info

Общее
Уникальный идентификатор : 226791404314276430172250723291767505430 (0xAA9E6F880F2C8A7586A3CB2AF2A80216)
Полное имя : F:\Тернер и Хуч\Tjorner i Huch.1989.BDRip-AVC.[pirat.ca].mkv
Формат : Matroska
Версия формата : Version 2
Размер файла : 2,56 Гбайт
Продолжительность : 1 ч. 39 м.
Общий поток : 3685 Кбит/сек
Название фильма : Тёрнер и Хуч.Turner and Hooc.1989
Дата кодирования : UTC 2016-07-10 15:49:06
Программа кодирования : mkvmerge v5.3.0 ('I could have danced') built on Feb 9 2012 10:38:07
Библиотека кодирования : libebml v1.2.3 + libmatroska v1.3.0Видео
Идентификатор : 1
Формат : AVC
Формат/Информация : Advanced Video Codec
Профиль формата : [email protected]/* */
Параметр CABAC формата : Да
Параметр ReFrames формата : 9 кадров
Идентификатор кодека : V_MPEG4/ISO/AVC
Продолжительность : 1 ч. 39 м.
Битрейт : 3427 Кбит/сек
Ширина : 1024 пикселя
Высота : 556 пикселей
Соотношение сторон : 1,85:1
Режим частоты кадров : Постоянный
Частота кадров : 23,976 (24000/1001) кадра/сек
Цветовое пространство : YUV
Субдискретизация насыщенности : 4:2:0
Битовая глубина : 8 бит
Тип развёртки : Прогрессивная
Бит/(Пиксели*Кадры) : 0.251
Размер потока : 2,33 Гбайт (91%)
Библиотека кодирования : x264 core 130 r2273 b3065e6
Настройки программы : cabac=1 / ref=9 / deblock=1:-3:-3 / analyse=0x3:0x113 / me=umh / subme=11 / psy=1 / psy_rd=1.00:0.20 / mixed_ref=1 / me_range=32 / chroma_me=1 / trellis=2 / 8x8dct=1 / cqm=0 / deadzone=21,11 / fast_pskip=0 / chroma_qp_offset=-3 / threads=4 / lookahead_threads=1 / sliced_threads=0 / nr=0 / decimate=0 / interlaced=0 / bluray_compat=0 / constrained_intra=0 / bframes=7 / b_pyramid=2 / b_adapt=2 / b_bias=0 / direct=3 / weightb=1 / open_gop=0 / weightp=2 / keyint=240 / keyint_min=23 / scenecut=40 / intra_refresh=0 / rc_lookahead=40 / rc=2pass / mbtree=0 / bitrate=3427 / ratetol=1.0 / qcomp=0.60 / qpmin=0 / qpmax=69 / qpstep=4 / cplxblur=20.0 / qblur=0.5 / vbv_maxrate=50000 / vbv_bufsize=50000 / nal_hrd=none / ip_ratio=1.40 / pb_ratio=1.30 / aq=1:1.00
Язык : English
Default : Да
Forced : НетАудио
Идентификатор : 2
Формат : AC-3
Формат/Информация : Audio Coding 3
Расширение режима : CM (complete main)
Параметр Endianness формата : Big
Идентификатор кодека : A_AC3
Продолжительность : 1 ч. 39 м.
Вид битрейта : Постоянный
Битрейт : 256 Кбит/сек
Каналы : 1 канал
Расположение каналов : Front: C
Частота : 48,0 КГц
Частота кадров : 31,250 кадров/сек (1536 spf)
Метод сжатия : С потерями
Размер потока : 182 Мбайт (7%)
Заголовок : Дублированный [СВ-Дубль]
Язык : Russian
Default : Нет
Forced : НетТекст
Идентификатор : 3
Формат : UTF-8
Идентификатор кодека : S_TEXT/UTF8
Идентификатор кодека/Информация : UTF-8 Plain Text
Язык : Russian
Default : Нет
Forced : НетМеню
00:00:00.000 : :Scott and Hooch
00:12:27.747 : :Amos Gets Killed
00:17:37.513 : :Catching Hooch
00:25:54.844 : :Hooch at the Doctor's Office
00:29:11.123 : :A Long Night
00:36:43.159 : :Home Alone
00:44:38.092 : :Scott and Emily
00:50:24.896 : :The Eyewitness
00:59:10.296 : :On the Case
01:05:35.890 : :Falling in Love
01:19:01.528 : :Solving the Case
01:30:05.649 : :A New Beginning/End Credits
01:39:31.215 : :End

Скриншот c названием фильма

Скриншоты

-Трейлер
Яндекс.Метрика
Рейтинг@Mail.ru