Защитник / Concussion (2015) BDRip [H.264]

 

Создавать темы 09-Июл-2016 23:23

-Защитник / Concussion (2015) BDRip [H.264]
« Даже легенде нужен герой »
- Производство: США, Великобритания, Австралия / Village Roadshow Pictures, Scott Free Productions, LStar Capital, Cantillon Company, The
Жанр: Драма, Биография, Спорт
Режиссер: Питер Ландесман
Актеры: Уилл Смит, Алек Болдуин, Альберт Брукс, Гугу Эмбата-Ро, Дэвид Морс, Арлисс Ховард, Майк О’Мэлли, Эдди Марсан, Хилл Харпер, Адевале Акинойе-Агбаже, Стивен Мойер, Ричард Т. Джонс, Пол Райзер, Люк Уилсон, Сара Линдсей, Мэттью Уиллиг, Битси Таллок, Кевин Джиггеттс, Гэри Граббс, Рэнди Ковиц, Джони Бовилл
Описание: В Америке один за одним неожиданно и загадочно умирают знаменитые спортсмены. Молодой, но талантливый патологоанатом хочет докопаться до истины, однако не всем нужна правда.-Возраст: 16+ (зрителям, достигшим 16 лет)
Рейтинг MPAA: PG-13 (детям до 13 лет просмотр нежелателен)
Дата мировой премьеры: 10 ноября 2015
Продолжительность: 02:02:49
Качество видео: BDRip http://multi-up.com/1109152
Перевод: Дублированный
Вид субтитров: Вшитые, отключаемые
Язык субтитров: Русский (Forced, Full), Английский
Видео: AVC/H.264, 2620 Kbps, 1152x480
Аудио 1: AC3 5.1, 448 Kbps, 48.0 KHz - Русский (DUB, Blu-ray CEE)
Аудио 2: AC3 5.1, 448 Kbps, 48.0 KHz - Английский (Оригинал)

MediaInfo

Общее
Полное имя                               : Защитник.mkv
Формат                                   : Matroska
Версия формата                           : Version 1
Размер файла                             : 3,02 Гбайт
Продолжительность                        : 2 ч. 2 м.
Общий поток                              : 3519 Кбит/сек
Дата кодирования                         : UTC 2016-07-09 08:00:26
Программа кодирования                    : mkvmerge v2.4.1 ('Use Me') built on Dec  5 2008 18:30:05
Библиотека кодирования                   : libebml v0.7.7 + libmatroska v0.8.1
Видео
Идентификатор                            : 1
Формат                                   : AVC
Формат/Информация                        : Advanced Video Codec
Профиль формата                          : [url=mailto:[email protected]][email protected][/url]
Параметр CABAC формата                   : Да
Параметр ReFrames формата                : 10 кадров
Идентификатор кодека                     : V_MPEG4/ISO/AVC
Продолжительность                        : 2 ч. 2 м.
Битрейт                                  : 2620 Кбит/сек
Ширина                                   : 1152 пикселя
Высота                                   : 480 пикселей
Соотношение сторон                       : 2,40:1
Режим частоты кадров                     : Постоянный
Частота кадров                           : 23,976 (24000/1001) кадра/сек
Цветовое пространство                    : YUV
Субдискретизация насыщенности            : 4:2:0
Битовая глубина                          : 8 бит
Тип развёртки                            : Прогрессивная
Бит/(Пиксели*Кадры)                      : 0.198
Размер потока                            : 2,19 Гбайт (73%)
Заголовок                                : Защитник (2015)
Библиотека кодирования                   : x264 core 148 r2665+53 6629127 t_mod_Custom [[email protected] X86_64]
Настройки программы                      : cabac=1 / ref=10 / deblock=1:-3:-3 / analyse=0x3:0x113 / me=umh / subme=10 / psy=1 / fade_compensate=0.00 / psy_rd=1.00:0.00 / mixed_ref=1 / me_range=32 / chroma_me=1 / trellis=2 / 8x8dct=1 / cqm=0 / deadzone=21,11 / fast_pskip=0 / chroma_qp_offset=-2 / threads=6 / lookahead_threads=1 / sliced_threads=0 / nr=0 / decimate=0 / interlaced=0 / bluray_compat=0 / constrained_intra=0 / fgo=0 / bframes=11 / b_pyramid=2 / b_adapt=2 / b_bias=0 / direct=3 / weightb=1 / open_gop=0 / weightp=2 / keyint=250 / keyint_min=23 / scenecut=40 / intra_refresh=0 / rc_lookahead=40 / rc=2pass / mbtree=0 / bitrate=2620 / ratetol=1.0 / qcomp=0.65 / qpmin=0:0:0 / qpmax=69:69:69 / qpstep=4 / cplxblur=20.0 / qblur=0.5 / vbv_maxrate=50000 / vbv_bufsize=62500 / nal_hrd=none / filler=0 / ip_ratio=1.35 / pb_ratio=1.30 / aq=3:0.80 / aq-sensitivity=10.00 / aq-factor=1.00:1.00:1.00 / aq2=0 / aq3=0
Язык                                     : English
Default                                  : Да
Forced                                   : Нет
Аудио #1
Идентификатор                            : 2
Формат                                   : AC-3
Формат/Информация                        : Audio Coding 3
Расширение режима                        : CM (complete main)
Параметр Endianness формата              : Big
Идентификатор кодека                     : A_AC3
Продолжительность                        : 2 ч. 2 м.
Вид битрейта                             : Постоянный
Битрейт                                  : 448 Кбит/сек
Каналы                                   : 6 каналов
Расположение каналов                     : Front: L C R, Side: L R, LFE
Частота                                  : 48,0 КГц
Частота кадров                           : 31,250 кадров/сек (1536 spf)
Метод сжатия                             : С потерями
Размер потока                            : 394 Мбайт (13%)
Заголовок                                : AC3 (Дублированный) Blu-ray CEE
Язык                                     : Russian
Default                                  : Да
Forced                                   : Нет
Аудио #2
Идентификатор                            : 3
Формат                                   : AC-3
Формат/Информация                        : Audio Coding 3
Расширение режима                        : CM (complete main)
Параметр Endianness формата              : Big
Идентификатор кодека                     : A_AC3
Продолжительность                        : 2 ч. 2 м.
Вид битрейта                             : Постоянный
Битрейт                                  : 448 Кбит/сек
Каналы                                   : 6 каналов
Расположение каналов                     : Front: L C R, Side: L R, LFE
Частота                                  : 48,0 КГц
Частота кадров                           : 31,250 кадров/сек (1536 spf)
Метод сжатия                             : С потерями
Размер потока                            : 394 Мбайт (13%)
Заголовок                                : AC3 (Оригинал)
Язык                                     : English
Default                                  : Нет
Forced                                   : Нет
Текст #1
Идентификатор                            : 4
Формат                                   : UTF-8
Идентификатор кодека                     : S_TEXT/UTF8
Идентификатор кодека/Информация          : UTF-8 Plain Text
Заголовок                                : Русские (Форсированные)
Язык                                     : Russian
Default                                  : Да
Forced                                   : Нет
Текст #2
Идентификатор                            : 5
Формат                                   : UTF-8
Идентификатор кодека                     : S_TEXT/UTF8
Идентификатор кодека/Информация          : UTF-8 Plain Text
Заголовок                                : Русские
Язык                                     : Russian
Default                                  : Нет
Forced                                   : Нет
Текст #3
Идентификатор                            : 6
Формат                                   : UTF-8
Идентификатор кодека                     : S_TEXT/UTF8
Идентификатор кодека/Информация          : UTF-8 Plain Text
Заголовок                                : Английские
Язык                                     : English
Default                                  : Нет
Forced                                   : Нет

Дополнительная информация

» Клэйтон, основатель и фронтмен музыкального проекта «Celldweller», составил программу для синтезатора для основной музыкальной темы фильма.
» Уилл Смит и Адевале Акиннуойе-Агбадже вместе сыграют в фильме «Отряд самоубийц» (2016).
» За основу сюжета взята статья Джин Мари Лэскас «Игры с мозгом», напечатанная в журнале «GQ» в 2009 году.
» Готовясь к исполнению роли доктора в фильме «Защитник», актёр Алек Болдуин наблюдал за несколькими врачами.
» Съёмки проходили в Питтсбурге, штат Пенсильвания.
» Готовясь к работе в фильме «Защитник», Уилл Смит и автор сценария и режиссёр Питер Ландесман наблюдали, как проводят вскрытие. В двух случаях вскрытие проводил сам доктор Беннет Омалу.
» Роль Премы Мутисо вначале предложили актрисе Люпите Нионго.
» Научная статья, которая приковала внимание к случаям хронической травматической энцефалопатии у футболистов, называлась «Хроническая травматическая энцефалопатия у игроков Национальной футбольной лиги». Она вышла в журнале «Neurosurgery» в июле 2005 года (том 57, выпуск 1). Статья была написана авторским коллективом в составе Б. Омалу, С. ДеКоски, Р. Минстера, М. Кэмбо, Р. Хэмильтона и Ч. Уэхта. Отрывки из статьи можно найти на сайте Национальной библиотеки медицины США, полный текст можно приобрести за плату у издателей журнала.
» Снявшемуся в этом фильме Мэттью Уиллигу эта тема должна быть близка. В играх Национальной футбольной лиги Уиллиг провёл 14 сезонов.
» Изначально считалось, что по окончании работы над фильмом «Исход: Цари и боги» (2014) фильм «Защитник» будет снимать Ридли Скотт.
» Некоторые эпизоды фильма были сняты в Окснарде, штат Калифорния.
» В кабинете Сирилла Уэхта можно заметить несколько фотографий Джон Фицджеральд Кеннеди. В действительности Сирилл Уэхт был знаменит, кроме всего прочего, своим критическим отношением к выводам Комиссии Уоррена (или Комиссии президента по расследованию убийства президента Кеннеди) относительно убийства. В фильме «Парклэнд» (2013) Питер Ландесман, напротив, выступал с позиций поддержки выводов Комиссии Уоррена, представленных 24 сентября 1964 года.
» Это второй фильм кинокомпании «Columbia Pictures„с Уиллом Смитом в главной роли, премьера которого назначена на 25 декабря. Первой была спортивная драма 2001 года «Али“». В обоих случаях Уилл Смит сыграл персонажей, списанных с реально существующих лиц.
» Майк Уэбстер скончался от сердечного приступа в возрасте 50 лет. Оставив профессиональный футбол, он жил в машине, спал на железнодорожных станциях и неоднократно подвергался аресту за подделку рецептов на получение психостимуляторов. Сам он утверждал, что лекарство ему нужно, чтобы справиться с последствиями сотрясений мозга. Врачи заявляли, что лобная доля его головного мозга была повреждена, что вызывало когнитивную дисфункцию. На момент смерти Уэбстер был «бездомным, безработным, по уши в долгах, с целым букетом недугов, и не имел медицинской страховки». В добавок ко всему, в тот момент Уэбстер разводился с женой.
Скриншоты:
Яндекс.Метрика
Рейтинг@Mail.ru