Дедушка легкого поведения / Dirty Grandpa (2016) BDRip [Unrated Cut]

 

Создавать темы 09-Июл-2016 23:23

-Дедушка легкого поведения / Dirty Grandpa (2016) [Unrated Cut]- Год выпуска: 2016
Производство: США, Lionsgate, BillBlock Media, QED International, Josephson Entertainment, Ninjas Runnin' Wild Productions, Covert Media
Жанр: Комедия
Перевод: Дублированный (iTunes)
Субтитры: Нет.
Возраст: 18+ (зрителям, достигшим 18 лет. запрещено для детей)
Рейтинг MPAA: R (лицам до 17 лет обязательно присутствие взрослого)
Дата Мировой премьеры: 20 января 2016
Дата Российской премьеры: 21 января 2016, «Централ Партнершип»
Режиссер: Дэн Мазер
Актеры: Роберт Де Ниро, Зак Эфрон, Зои Дойч, Обри Плаза, Джейсон Манцукас, Дермот Малруни, Джулианна Хаф, Джеффри Бауэр-Чепман, Брэндон Майкал Смит, Джейк Пикинг, Майкл Хадсон, Адам Палли
Описание фильма:
Джейсон, покладистый правильный парень, накануне свадьбы вляпывается в увеселительную поездку к морю со своим дедом, отставным генералом с легким нравом, бурной фантазией и вполне определенными потребностями... И, похоже, дедские каникулы изменят жизнь Джейсона навсегда!
Сэмпл
Продолжительность: 01:49:35
Качество видео: BDRip
Видеокодек: XVid
Формат: AVI
Видео: 720x304 (2.37:1), 23.976 fps, XviD build 67 ~1510 kbps avg, 0.29 bit/pixel
Аудио: 48 kHz, AC3 Dolby Digital, 3/2 (L,C,R,l,r) + LFE ch, ~384.00 kbps avg

MediaInfo:

General
Complete name : J:\Дедушка легкого поведения Dirty Grandpa (2016)
Format : AVI
Format/Info : Audio Video Interleave
File size : 1.46 GiB
Duration : 1 h 49 min
Overall bit rate : 1 904 kb/s
Writing application : VirtualDubMod 1.5.10.3 | (build 2550/release)
Writing library : VirtualDubMod build 2550/release
Video
ID : 0
Format : MPEG-4 Visual
Format profile : Advanced [email protected]
Format settings, BVOP : 1
Format settings, QPel : No
Format settings, GMC : No warppoints
Format settings, Matrix : Custom
Codec ID : XVID
Codec ID/Hint : XviD
Duration : 1 h 49 min
Bit rate : 1 511 kb/s
Width : 720 pixels
Height : 304 pixels
Display aspect ratio : 2.35:1
Frame rate : 23.976 (23976/1000) FPS
Color space : YUV
Chroma subsampling : 4:2:0
Bit depth : 8 bits
Scan type : Progressive
Compression mode : Lossy
Bits/(Pixel*Frame) : 0.288
Stream size : 1.16 GiB (79%)
Writing library : XviD 67
Audio
ID : 1
Format : AC-3
Format/Info : Audio Coding 3
Mode extension : CM (complete main)
Format settings, Endianness : Big
Codec ID : 2000
Duration : 1 h 49 min
Bit rate mode : Constant
Bit rate : 384 kb/s
Channel(s) : 6 channels
Channel positions : Front: L C R, Side: L R, LFE
Sampling rate : 48.0 kHz
Frame rate : 31.250 FPS (1536 spf)
Compression mode : Lossy
Stream size : 301 MiB (20%)
Alignment : Split accross interleaves
Interleave, duration : 42 ms (1.00 video frame)
Interleave, preload duration : 500 ms
Скриншоты:
Яндекс.Метрика
Рейтинг@Mail.ru