Варкрафт / Warcraft (2016) WEBRip [Line]

 

Создавать темы 09-Июл-2016 23:23

- Варкрафт / Warcraft (2016) WEBRip - Производство: США, Blizzard Entertainment, Legendary Pictures, Universal Pictures
Жанр: Фэнтези, Боевик, Приключения
Режиссер: Дункан Джонс
Продюсер: Стюарт Фенеган, Алекс Гартнер, Джон Дж. Джашни
Актеры: Трэвис Фиммел, Бен Фостер, Пола Пэттон, Тоби Кеббелл, Роберт Казински, Доминик Купер, Даниэль Ву, Клэнси Браун
Описание:
Веками магия и неприступные стены защищали людей от любых напастей. Но древнее зло, побежденное и забытое тысячелетия назад, пробудилось. В самом сердце королевства открылся темный портал, и раса невиданных существ наводнила земли Азерота. Так начались события, призванные навсегда изменить судьбу этого мира.-Возраст: 12+ (зрителям, достигшим 12 лет)
Рейтинг MPAA: PG-13 (детям до 13 лет просмотр нежелателен)
Дата мировой премьеры: 25 мая 2016
Дата российской премьеры: 26 мая 2016, «UPI» 3D-Продолжительность: 02:01:05
Качество видео: WEBRip [thumb]http://sendfile.su/1248585[/thumb]
Перевод: Дублированный (Чистый звук)
Вид субтитров: корейские (вшитые, не отключаемые)
Видео: XviD, 720x304, 1349 Kbps
Аудио: AC-3, 48.0 KHz, 2 ch, 256 Kbps

Mediainfo:

Общее
Полное имя                               : D:\WarKrAFTo.2O16.D.WEBRip.NNM-CLUB.avi
Формат                                   : AVI
Формат/Информация                        : Audio Video Interleave
Размер файла                             : 1,37 Гбайт
Продолжительность                        : 2 ч. 1 м.
Общий поток                              : 1616 Кбит/сек
Программа кодирования                    : VirtualDubMod 1.5.10.2 (build 2540/release)
Библиотека кодирования                   : VirtualDubMod build 2540/release
Видео
Идентификатор                            : 0
Формат                                   : MPEG-4 Visual
Профиль формата                          : Advanced [email protected]
Параметр BVOP формата                    : 2
Параметр QPel формата                    : Нет
Параметр GMC формата                     : Без точки перехода
Параметр матрицы формата                 : Default (MPEG)
Идентификатор кодека                     : XVID
Идентификатор кодека/Подсказка           : XviD
Продолжительность                        : 2 ч. 1 м.
Битрейт                                  : 1349 Кбит/сек
Ширина                                   : 720 пикселей
Высота                                   : 304 пикселя
Соотношение сторон                       : 2,35:1
Частота кадров                           : 29,970 кадров/сек
Цветовое пространство                    : YUV
Субдискретизация насыщенности            : 4:2:0
Битовая глубина                          : 8 бит
Тип развёртки                            : Прогрессивная
Метод сжатия                             : С потерями
Бит/(Пиксели*Кадры)                      : 0.206
Размер потока                            : 1,14 Гбайт (83%)
Библиотека кодирования                   : XviD 1.2.1 (UTC 2008-12-04)
Аудио
Идентификатор                            : 1
Формат                                   : AC-3
Формат/Информация                        : Audio Coding 3
Расширение режима                        : CM (complete main)
Параметр Endianness формата              : Big
Идентификатор кодека                     : 2000
Продолжительность                        : 2 ч. 1 м.
Вид битрейта                             : Постоянный
Битрейт                                  : 256 Кбит/сек
Каналы                                   : 2 канала
Расположение каналов                     : Front: L R
Частота                                  : 48,0 КГц
Битовая глубина                          : 16 бит
Метод сжатия                             : С потерями
Размер потока                            : 222 Мбайт (16%)
Выравнивание                             : Разделение по промежуткам
Продолжительность промежутка             : 33  мс. (1,00 видеокадр)
Время предзагрузки промежутка            : 500  мс.
Скриншоты:
Яндекс.Метрика
Рейтинг@Mail.ru