[ Сегодня на трекере фрилич! Идет свободное скачивание без начисления Download ]

Преступник / Criminal (2016) WEBRip [H.264/1080p-LQ] [Line]

 

Создавать темы 09-Июл-2016 23:23

- Преступник / Criminal (2016) WEBRip [H.264/1080p-LQ] - Производство: Великобритания, США, BenderSpink, Campbell Grobman Films, Lionsgate
Жанр: Фантастика, боевик, триллер, драма, криминал, детектив
Режиссер: Ариэль Вромен
Продюсер: Крис Бендер, Криста Кэмпбелл, Боаз Дэвидсон
Актеры: Кевин Костнер, Гэри Олдман, Томми Ли Джонс, Райан Рейнольдс, Элис Ив, Галь Гадот, Хорди Молья, Майкл Питт, Амори Ноласко, Антье Трауэ
Описание:
В последней отчаянной попытке остановить катастрофу мирового масштаба генетики осуществляют невероятную операцию по вживлению воспоминаний и умений погибшего оперативника ЦРУ в тело опасного заключенного с надеждой, что тот доведет до конца прерванную миссию агента.
[thumb]http://multi-up.com/1107058[/thumb]
Возраст: 18+ (зрителям, достигшим 18 лет. запрещено для детей)
Рейтинг MPAA: R (лицам до 17 лет обязательно присутствие взрослого)
Дата мировой премьеры: 7 апреля 2016
Дата премьеры в РФ: 14 апреля 2016, «MEGOGO Distribution»

Продолжительность: 01:52:35
Качество видео: WEBRip
Перевод: Дублированный (Чистый звук)
Вид субтитров: Вшитые не отключаемые
Язык субтитров: Корейский
Видео: AVC/H.264, 1920x800 (2.40:1), 2970 kb/s
Аудио »1: 48 kHz, AC3 Dolby Digital, 2/0 (L,R) ch, ~384 kbps (Русский)
Аудио »2: 48 kHz, AC3 Dolby Digital, 2/0 (L,R) ch, ~192 kbps (Оригинал)

MI

Общее
Уникальный идентификатор : 218463279174321639160932267436816177178 (0xA45A7F42AC0E77AD975989D8FFF7981A)
Полное имя : D:\Релизы\Преступник.2016.WEBRip.[1080p].NNMClub.to.mkv
Формат : Matroska
Версия формата : Version 2
Размер файла : 2,85 Гбайт
Продолжительность : 1 ч. 52 м.
Общий поток : 3618 Кбит/сек
Название фильма : Преступник.2016.WEBRip.[1080p].NNMClub.to
Дата кодирования : UTC 2016-06-23 15:48:37
Программа кодирования : mkvmerge v8.3.0 ('Over the Horizon') 64bit
Библиотека кодирования : libebml v1.3.1 + libmatroska v1.4.2
Видео
Идентификатор : 1
Формат : AVC
Формат/Информация : Advanced Video Codec
Профиль формата : [email protected]
Параметр CABAC формата : Да
Параметр ReFrames формата : 4 кадра
Идентификатор кодека : V_MPEG4/ISO/AVC
Продолжительность : 1 ч. 52 м.
Битрейт : 2970 Кбит/сек
Ширина : 1920 пикселей
Высота : 800 пикселей
Соотношение сторон : 2,40:1
Режим частоты кадров : Постоянный
Частота кадров : 24,000 кадра/сек
Цветовое пространство : YUV
Субдискретизация насыщенности : 4:2:0
Битовая глубина : 8 бит
Тип развёртки : Прогрессивная
Бит/(Пиксели*Кадры) : 0.081
Размер потока : 2,34 Гбайт (82%)
Заголовок : Преступник.2016.WEBRip.[1080p].NNMClub.to
Язык : English
Default : Да
Forced : Нет
Цветовой диапазон : Limited
Основные цвета : BT.709
Характеристики трансфера : BT.709
Коэффициенты матрицы : BT.709
Аудио #1
Идентификатор : 2
Формат : AC-3
Формат/Информация : Audio Coding 3
Расширение режима : CM (complete main)
Параметр Endianness формата : Big
Идентификатор кодека : A_AC3
Продолжительность : 1 ч. 52 м.
Вид битрейта : Постоянный
Битрейт : 384 Кбит/сек
Каналы : 2 канала
Расположение каналов : Front: L R
Частота : 48,0 КГц
Метод сжатия : С потерями
Размер потока : 309 Мбайт (11%)
Заголовок : Line
Язык : Russian
Default : Да
Forced : Да
Аудио #2
Идентификатор : 3
Формат : AC-3
Формат/Информация : Audio Coding 3
Расширение режима : CM (complete main)
Параметр Endianness формата : Big
Идентификатор кодека : A_AC3
Продолжительность : 1 ч. 52 м.
Вид битрейта : Постоянный
Битрейт : 192 Кбит/сек
Каналы : 2 канала
Расположение каналов : Front: L R
Частота : 48,0 КГц
Метод сжатия : С потерями
Размер потока : 155 Мбайт (5%)
Заголовок : Original
Язык : English
Default : Нет
Forced : Нет
Скриншоты:
Яндекс.Метрика
Рейтинг@Mail.ru