[ Сегодня на трекере фрилич! Идет свободное скачивание без начисления Download ]

Большой всплеск / A Bigger Splash (2015) HDRip [Line]

 

Создавать темы 09-Июл-2016 23:23

- Большой всплеск / A Bigger Splash (2015) HDRip- Производство: Италия, Франция, Studio Canal, Frenesy Film Production
Жанр: Триллер, Криминал, Детектив
Режиссер: Лука Гуаданьино
Продюсер: Майкл Костиган, Лука Гуаданьино, Оливье Курсон
Актеры: Тильда Суинтон, Маттиас Шонартс, Рэйф Файнс, Дакота Джонсон, Коррадо Гуццанти, Алессандро Феррара, Дэвид Маддалена, Сальваоре Габриэле, Ливио Франко Бландино, Аврора Клеман
Описание:
Рок-звезда Марианна Лэйн и ее бойфренд наслаждаются отдыхом на юге Италии. Островную идиллию пары нарушает визит Гарри, бывшего любовника Марианны, и его взрослой дочери. Легкомысленная игра, невинный флирт, настоящая страсть и всепоглощающая ревность обернутся для героев смертельной опасностью.
[thumb]http://multi-up.com/1107882[/thumb]
Возраст: 18+ (зрителям, достигшим 18 лет. запрещено для детей)
Рейтинг MPAA: R (лицам до 17 лет обязательно присутствие взрослого)
Дата мировой премьеры: 6 сентября 2015
Дата российской премьеры: 9 июня 2016, «Экспонента»
Дата выхода DVD/Blu-ray релиза: 11 июля 2016, «НД Плэй»
Продолжительность: 02:04:18
Качество видео: HDRip
Перевод: Дублированный (Чистый звук)
Вид субтитров: Отсутствуют
Реклама: Присутствуют голосовые и текстовые вставки рекламы.
Видео: XviD, 720x384, 1966 kbps
Аудио: 48 kHz, AC3 Dolby Digital, 2/0 (L,R) ch, ~384 kbps

MI

Общее
Полное имя : D:\Релизы\Большой.всплеск.2015.HDRip.NNMClub.to.avi
Формат : AVI
Формат/Информация : Audio Video Interleave
Профиль формата : OpenDML
Размер файла : 2,05 Гбайт
Продолжительность : 2 ч. 4 м.
Общий поток : 2362 Кбит/сек
Программа кодирования : VirtualDubMod 1.5.10.2 (build 2540/release)
Библиотека кодирования : VirtualDubMod build 2540/release
Видео
Идентификатор : 0
Формат : MPEG-4 Visual
Профиль формата : Advanced [email protected]
Параметр BVOP формата : 2
Параметр QPel формата : Нет
Параметр GMC формата : Без точки перехода
Параметр матрицы формата : Default (MPEG)
Идентификатор кодека : XVID
Идентификатор кодека/Подсказка : XviD
Продолжительность : 2 ч. 4 м.
Битрейт : 1966 Кбит/сек
Ширина : 720 пикселей
Высота : 384 пикселя
Соотношение сторон : 1,85:1
Частота кадров : 24,000 кадра/сек
Цветовое пространство : YUV
Субдискретизация насыщенности : 4:2:0
Битовая глубина : 8 бит
Тип развёртки : Прогрессивная
Метод сжатия : С потерями
Бит/(Пиксели*Кадры) : 0.296
Размер потока : 1,71 Гбайт (83%)
Библиотека кодирования : XviD 1.2.1 (UTC 2008-12-04)
Аудио
Идентификатор : 1
Формат : AC-3
Формат/Информация : Audio Coding 3
Расширение режима : CM (complete main)
Параметр Endianness формата : Big
Идентификатор кодека : 2000
Продолжительность : 2 ч. 4 м.
Вид битрейта : Постоянный
Битрейт : 384 Кбит/сек
Каналы : 2 канала
Расположение каналов : Front: L R
Частота : 48,0 КГц
Метод сжатия : С потерями
Размер потока : 341 Мбайт (16%)
Выравнивание : Разделение по промежуткам
Продолжительность промежутка : 42 мс. (1,00 видеокадр)
Время предзагрузки промежутка : 500 мс.
Скриншоты:
Яндекс.Метрика
Рейтинг@Mail.ru