[ Сегодня на трекере фрилич! Идет свободное скачивание без начисления Download ]

Бэтмен против Супермена: На заре справедливости / Batman v Superman: Dawn of Justice (2016) WEB-DLRip [H.264]

 

Создавать темы 09-Июл-2016 23:23

-Бэтмен против Супермена: На заре справедливости / Batman v Superman: Dawn of Justice (2016) WEB-DLRip [H.264] - Год выпуска: 2016
Производство: США / DC Entertainment, Dune Entertainment, Syncopy
Жанр: фантастика, боевик
Режиссер: Зак Снайдер
Актеры: Генри Кавилл, Бен Аффлек, Галь Гадот, Джейсон Момоа, Эми Адамс, Джесси Айзенберг, Джена Мэлоун, Эзра Миллер, Дайан Лэйн, Джереми Айронс
Описание: Опасаясь, что действия богоподобного супергероя так и останутся бесконтрольными, грозный и могущественный страж Готэм Сити бросает вызов самому почитаемому в наши дни спасителю Метрополиса, в то время как весь остальной мир решает, какой герой ему по-настоящему нужен. И пока Бэтмен и Супермен пребывают в состоянии войны друг с другом, возникает новая угроза, которая ставит человечество под самую большую опасность, с которой оно когда-либо сталкивалось.
Возраст: 16+ (зрителям, достигшим 16 лет)
Рейтинг MPAA: PG-13 (детям до 13 лет просмотр нежелателен)
Дата мировой премьеры: 23 марта 2016
Дата российской премьеры: 25 марта 2016

Релиз от: NNMCLUB
Продолжительность: 02:31:38
Качество видео: WEB-DLRip (batonchik)
Перевод: Дубляж (iTunes)
Субтитры: Русский (форс., полные)
Видео: AVC, 1024x426 (2.40:1), 23.976 fps, 1670 Kbps
Аудио: AC-3, 48.0 KHz, 6 ch, 384 Kbps | Русский дубляж

h.264 log:

--[Information] [29.06.2016 9:09:33] Standard error stream
---[Information] [29.06.2016 9:09:43] raw [info]: 1024x426p 1:1 @ 24000/1001 fps (cfr)
---[Information] [29.06.2016 9:09:43] x264 [info]: using SAR=1/1
---[Information] [29.06.2016 9:09:43] x264 [info]: using cpu capabilities: MMX2 SSE2Fast SSSE3 SSE4.2 AVX
---[Information] [29.06.2016 9:09:43] x264 [info]: profile High, level 4.1
---[Information] [29.06.2016 11:53:44] x264 [info]: frame I:1646 Avg QP:15.57 size: 49602
---[Information] [29.06.2016 11:53:44] x264 [info]: frame P:64192 Avg QP:19.12 size: 15628
---[Information] [29.06.2016 11:53:44] x264 [info]: frame B:152295 Avg QP:21.69 size: 5346

---[Information] [29.06.2016 11:53:44] x264 [info]: consecutive B-frames: 5.2% 8.8% 9.0% 54.3% 9.4% 11.3% 1.1% 0.7% 0.3%
---[Information] [29.06.2016 11:53:44] x264 [info]: mb I I16..4: 10.6% 65.8% 23.6%
---[Information] [29.06.2016 11:53:44] x264 [info]: mb P I16..4: 2.6% 13.4% 1.6% P16..4: 41.9% 16.2% 13.0% 0.7% 0.3% skip:10.4%
---[Information] [29.06.2016 11:53:44] x264 [info]: mb B I16..4: 0.2% 1.4% 0.2% B16..8: 40.0% 9.6% 2.2% direct: 5.0% skip:41.3% L0:40.8% L1:46.8% BI:12.4%
---[Information] [29.06.2016 11:53:44] x264 [info]: 8x8 transform intra:75.4% inter:65.4%
---[Information] [29.06.2016 11:53:44] x264 [info]: direct mvs spatial:94.9% temporal:5.1%
---[Information] [29.06.2016 11:53:44] x264 [info]: coded y,uvDC,uvAC intra: 76.2% 70.6% 35.8% inter: 20.0% 13.4% 1.3%
---[Information] [29.06.2016 11:53:44] x264 [info]: i16 v,h,dc,p: 25% 18% 11% 46%
---[Information] [29.06.2016 11:53:44] x264 [info]: i8 v,h,dc,ddl,ddr,vr,hd,vl,hu: 12% 10% 8% 8% 12% 12% 13% 11% 14%
---[Information] [29.06.2016 11:53:44] x264 [info]: i4 v,h,dc,ddl,ddr,vr,hd,vl,hu: 13% 10% 5% 9% 13% 13% 13% 10% 14%
---[Information] [29.06.2016 11:53:44] x264 [info]: i8c dc,h,v,p: 38% 28% 18% 16%
---[Information] [29.06.2016 11:53:44] x264 [info]: Weighted P-Frames: Y:6.9% UV:3.7%
---[Information] [29.06.2016 11:53:44] x264 [info]: ref P L0: 50.5% 9.3% 18.7% 7.1% 5.7% 4.3% 3.7% 0.7% 0.1%
---[Information] [29.06.2016 11:53:44] x264 [info]: ref B L0: 78.6% 11.5% 5.3% 2.6% 1.4% 0.7%
---[Information] [29.06.2016 11:53:44] x264 [info]: ref B L1: 94.4% 5.6%
---[Information] [29.06.2016 11:53:44] x264 [info]: kb/s:1669.84
---[Information] [29.06.2016 11:53:44] encoded 218133 frames, 22.17 fps, 1669.84 kb/s
--[Information] [29.06.2016 11:53:46] Final statistics
---[Information] [29.06.2016 11:53:46] Video Bitrate Desired: 1670 kbit/s
---[Information] [29.06.2016 11:53:46] Video Bitrate Obtained (approximate): 1671 kbit/s

MediaInfo

Общее
Полное имя : \Batman v Superman_Dawn of Justice.2016.WEB-DLRip.H.264.NNMCLUB.mkv
Формат : Matroska
Версия формата : Version 2
Размер файла : 2,18 Гбайт
Продолжительность : 2 ч. 31 м.
Общий поток : 2056 Кбит/сек
Название фильма : Batman v Superman_Dawn of Justice.2016.WEB-DLRip.H.264.NNMCLUB
Дата кодирования : UTC 2016-06-29 09:13:58
Программа кодирования : mkvmerge v7.7.0 ('Six Voices') 64bit built on Feb 28 2015 23:39:33
Библиотека кодирования : libebml v1.3.1 + libmatroska v1.4.2
Видео
Идентификатор : 1
Формат : AVC
Формат/Информация : Advanced Video Codec
Профиль формата : [url=mailto:[email protected]][email protected][/url]
Параметр CABAC формата : Да
Параметр ReFrames формата : 7 кадров
Идентификатор кодека : V_MPEG4/ISO/AVC
Продолжительность : 2 ч. 31 м.
Битрейт : 1670 Кбит/сек
Ширина : 1024 пикселя
Высота : 426 пикселей
Соотношение сторон : 2,40:1
Режим частоты кадров : Постоянный
Частота кадров : 23,976 (24000/1001) кадра/сек
Цветовое пространство : YUV
Субдискретизация насыщенности : 4:2:0
Битовая глубина : 8 бит
Тип развёртки : Прогрессивная
Бит/(Пиксели*Кадры) : 0.160
Размер потока : 1,73 Гбайт (79%)
Заголовок : Batman v Superman_Dawn of Justice.2016.WEB-DLRip.H.264.NNMCLUB
Библиотека кодирования : x264 core 148 r2638 7599210
Настройки программы : cabac=1 / ref=7 / deblock=1:-3:-3 / analyse=0x3:0x133 / me=umh / subme=10 / psy=1 / psy_rd=1.00:0.15 / mixed_ref=1 / me_range=32 / chroma_me=1 / trellis=2 / 8x8dct=1 / cqm=0 / deadzone=21,11 / fast_pskip=0 / chroma_qp_offset=-3 / threads=12 / lookahead_threads=2 / sliced_threads=0 / nr=0 / decimate=1 / interlaced=0 / bluray_compat=0 / constrained_intra=0 / bframes=8 / b_pyramid=2 / b_adapt=2 / b_bias=0 / direct=3 / weightb=1 / open_gop=0 / weightp=2 / keyint=250 / keyint_min=23 / scenecut=40 / intra_refresh=0 / rc_lookahead=40 / rc=2pass / mbtree=1 / bitrate=1670 / ratetol=1.0 / qcomp=0.60 / qpmin=0 / qpmax=69 / qpstep=4 / cplxblur=20.0 / qblur=0.5 / vbv_maxrate=50000 / vbv_bufsize=62500 / nal_hrd=none / filler=0 / ip_ratio=1.40 / aq=1:1.00
Язык : English
Default : Да
Forced : Нет
Цветовой диапазон : Limited
Коэффициенты матрицы : BT.709
Аудио
Идентификатор : 2
Формат : AC-3
Формат/Информация : Audio Coding 3
Расширение режима : CM (complete main)
Параметр Endianness формата : Big
Идентификатор кодека : A_AC3
Продолжительность : 2 ч. 31 м.
Вид битрейта : Постоянный
Битрейт : 384 Кбит/сек
Каналы : 6 каналов
Расположение каналов : Front: L C R, Side: L R, LFE
Частота : 48,0 КГц
Частота кадров : 31,250 кадров/сек (1536 spf)
Метод сжатия : С потерями
Размер потока : 416 Мбайт (19%)
Заголовок : Дубляж (iTunes)
Язык : Russian
Default : Да
Forced : Нет
Текст #1
Идентификатор : 3
Формат : UTF-8
Идентификатор кодека : S_TEXT/UTF8
Идентификатор кодека/Информация : UTF-8 Plain Text
Заголовок : Форс.
Язык : Russian
Default : Да
Forced : Нет
Текст #2
Идентификатор : 4
Формат : UTF-8
Идентификатор кодека : S_TEXT/UTF8
Идентификатор кодека/Информация : UTF-8 Plain Text
Заголовок : Полные
Язык : Russian
Default : Нет
Forced : Нет
Меню
00:00:00.000 : en:1
00:09:48.000 : en:2
00:20:45.000 : en:3
00:29:58.000 : en:4
00:38:46.000 : en:5
00:49:25.000 : en:6
00:59:21.000 : en:7
01:10:06.000 : en:8
01:21:14.000 : en:9
01:30:00.000 : en:10
01:38:20.000 : en:11
01:49:57.000 : en:12
02:01:48.000 : en:13
02:10:40.000 : en:14
02:18:41.000 : en:15
02:23:50.000 : en:16
Скриншоты:
Яндекс.Метрика
Рейтинг@Mail.ru