[ Сегодня на трекере фрилич! Идет свободное скачивание без начисления Download ]

Бэйтаун вне закона / The Baytown Outlaws (2012) BDRip [H.264/720p]

 

Создавать темы 09-Июл-2016 09:51

- Бэйтаун вне закона / The Baytown Outlaws (2012) BDRip [H.264/720p]- Производство: США / Lleju Productions & State Street Pictures
Жанр: Боевик, Комедия, Криминал
Режиссер: Бэрри Баттлс
Актеры: Клейн Кроуфорд, Дэниэл Кадмор, Трэвис Фиммел, Ева Лонгория, Андре Брогер, Билли Боб Торнтон, Пол Уэсли, Томас Сэнгстер, Майкл Рапапорт, Зои Белл
Описание:
События развернутся вокруг трех братьев, которые всегда любили конфликты и хорошо подраться. Их нанимают для того, чтобы помочь одной женщине уберечь ее крестника от рук жестокого отчима. Парни входят во вкус и проливают реки чужой крови, в основном похитителей.-Возраст: 16+ (зрителям, достигшим 16 лет)
Рейтинг MPAA: R (лицам до 17 лет обязательно присутствие взрослого)
Релиз от: lexandros
Продолжительность: 01:38:39
Качество видео: BDRip
Перевод: Многоголосый закадровый, профессиональный
Язык субтитров: Русский, Английский
Вид субтитров: Вшитые, отключаемые
Реклама: отсутствует
Видео: AVC/H.264, 1280x536, ~5500 kbps
Аудио: AC3, 6 ch, 384 kbps, CBR, Русский (MVO)
Аудио: AC3, 6 ch, 640 kbps, CBR, Английский (оригинал)

Mediainfo:

General
Format                      : Matroska
Format version              : Version 2
File size                   : 4.50 GiB
Duration                    : 1h 38mn
Overall bit rate            : 6 535 Kbps
Movie name                  : The Baytown Outlaws (2012). BDRip 720p by Lexandros
Encoded date                : UTC 2016-07-08 20:33:10
Writing application         : mkvmerge v8.5.2 ('Crosses') 32bit
Writing library             : libebml v1.3.3 + libmatroska v1.4.4
Video
ID                          : 1
Format                      : AVC
Format/Info                 : Advanced Video Codec
Format profile              : [url=mailto:[email protected]][email protected][/url]
Format settings, CABAC      : Yes
Format settings, ReFrames   : 12 frames
Codec ID                    : V_MPEG4/ISO/AVC
Duration                    : 1h 38mn
Bit rate                    : 5 500 Kbps
Width                       : 1 280 pixels
Height                      : 536 pixels
Display aspect ratio        : 2.40:1
Frame rate mode             : Constant
Frame rate                  : 23.976 (24000/1001) fps
Color space                 : YUV
Chroma subsampling          : 4:2:0
Bit depth                   : 8 bits
Scan type                   : Progressive
Bits/(Pixel*Frame)          : 0.334
Stream size                 : 3.79 GiB (84%)
Writing library             : x264 core 148 r2638 7599210
Encoding settings           : cabac=1 / ref=12 / deblock=1:-1:-1 / analyse=0x3:0x133 / me=umh / subme=11 / psy=1 / psy_rd=1.05:0.00 / mixed_ref=1 / me_range=32 / chroma_me=1 / trellis=2 / 8x8dct=1 / cqm=0 / deadzone=21,11 / fast_pskip=0 / chroma_qp_offset=-2 / threads=12 / lookahead_threads=2 / sliced_threads=0 / nr=0 / decimate=0 / interlaced=0 / bluray_compat=0 / constrained_intra=0 / bframes=8 / b_pyramid=2 / b_adapt=2 / b_bias=0 / direct=3 / weightb=1 / open_gop=0 / weightp=2 / keyint=240 / keyint_min=23 / scenecut=40 / intra_refresh=0 / rc_lookahead=60 / rc=2pass / mbtree=0 / bitrate=5500 / ratetol=1.0 / qcomp=0.70 / qpmin=10 / qpmax=51 / qpstep=4 / cplxblur=20.0 / qblur=0.5 / vbv_maxrate=62500 / vbv_bufsize=78125 / nal_hrd=none / filler=0 / ip_ratio=1.40 / pb_ratio=1.20 / aq=3:0.85
Default                     : Yes
Forced                      : No
Audio #1
ID                          : 2
Format                      : AC-3
Format/Info                 : Audio Coding 3
Mode extension              : CM (complete main)
Format settings, Endianness : Big
Codec ID                    : A_AC3
Duration                    : 1h 38mn
Bit rate mode               : Constant
Bit rate                    : 384 Kbps
Channel(s)                  : 6 channels
Channel positions           : Front: L C R, Side: L R, LFE
Sampling rate               : 48.0 KHz
Frame rate                  : 31.250 fps (1536 spf)
Compression mode            : Lossy
Stream size                 : 271 MiB (6%)
Language                    : Russian
Default                     : Yes
Forced                      : No
Audio #2
ID                          : 3
Format                      : AC-3
Format/Info                 : Audio Coding 3
Mode extension              : CM (complete main)
Format settings, Endianness : Big
Codec ID                    : A_AC3
Duration                    : 1h 38mn
Bit rate mode               : Constant
Bit rate                    : 640 Kbps
Channel(s)                  : 6 channels
Channel positions           : Front: L C R, Side: L R, LFE
Sampling rate               : 48.0 KHz
Frame rate                  : 31.250 fps (1536 spf)
Compression mode            : Lossy
Stream size                 : 452 MiB (10%)
Language                    : English
Default                     : No
Forced                      : No
Text #1
ID                          : 4
Format                      : PGS
Muxing mode                 : zlib
Codec ID                    : S_HDMV/PGS
Codec ID/Info               : Picture based subtitle format used on BDs/HD-DVDs
Duration                    : 1h 33mn
Bit rate                    : 6 601 bps
Count of elements           : 2140
Stream size                 : 4.40 MiB (0%)
Language                    : Russian
Default                     : No
Forced                      : No
Text #2
ID                          : 5
Format                      : PGS
Muxing mode                 : zlib
Codec ID                    : S_HDMV/PGS
Codec ID/Info               : Picture based subtitle format used on BDs/HD-DVDs
Duration                    : 1h 36mn
Bit rate                    : 6 951 bps
Count of elements           : 2424
Stream size                 : 4.78 MiB (0%)
Language                    : English
Default                     : No
Forced                      : No
Menu
00:00:00.000                : en:00:00:00.000
00:10:38.679                : en:00:10:38.679
00:20:29.311                : en:00:20:29.311
00:31:20.169                : en:00:31:20.169
00:40:28.634                : en:00:40:28.634
00:51:02.893                : en:00:51:02.893
01:00:01.014                : en:01:00:01.014
01:10:09.413                : en:01:10:09.413
01:20:59.604                : en:01:20:59.604
01:34:36.921                : en:01:34:36.921
Скриншоты:
Яндекс.Метрика
Рейтинг@Mail.ru