Однажды в сказке / Once Upon a Time / Сезон: 5 / Серии: 1-23 (23) (Дин Уайт / Dean White, ...) [2015 г., фэнтези, мелодрама, приключения, WEB-DL, 720p] Dub (Невафильм) + DVO (Кубик в Кубе) + Original (Eng) + Sub (Rus, Eng)

 

Создавать темы 09-Июл-2016 03:48

-Однажды в сказке / Once Upon a Time
«Добро пожаловать в Сторибрук»
(5 сезон)
-- Производство: США
Жанр: фэнтези, мелодрама, приключения
Год выпуска: 2015 г.
Продолжительность: 23x ~00:45:00Перевод: Профессиональный (полное дублирование) [Невафильм]
Перевод 2: Профессиональный (двухголосый, закадровый) [Кубик в Кубе]
Оригинальный аудиопоток: английскийРежиссер: Дин Уайт / Dean White, Ральф Хемекер / Ralph Hemecker, Дэвид Соломон / David Solomon, ...-В ролях: Дженнифер Моррисон, Джиннифер Гудвин, Лана Паррия, Джошуа Даллас, Джаред Гилмор, Роберт Карлайл, Рафаэль Сбардж, Меган Ори, Эмили де Рэвин, Колин О’Донохью, ...-Описание: Сюжет фэнтези разворачивается в двух мирах - современном и сказочном. Жизнь 28-летней Эммы Свон меняется, когда ее 10-летний сын Генри, от которого она отказалась много лет назад, находит Эмму и объявляет, что она является дочерью Прекрасного Принца и Белоснежки. Само собой разумеется, у мальчишки нет никаких сомнений, что параллельно нашему существует альтернативный сказочный мир – город Сторибрук, в котором в итоге оказывается Эмма. Постепенно героиня привязывается к необычному мальчику и странному городу, жители которого «забыли», кем они были в прошлом. А все из-за проклятия Злой Королевы (по совместительству приемной матери Генри), с помощью которого колдунья остановила время в сказочной стране. Однако стоит протянуть руку - и сказка оживет. Эпическая битва за будущее двух миров начинается, но, чтобы одержать победу, Эмме придется принять свою судьбу...- -Качество видео: WEB-DL
Контейнер: MKV
Стандарт разрешения: 720p
Видео кодек: H.264/AVC
Аудио кодек: AC3
Видео: 1280x720 at 23.976 fps, ~4000 kbps avg
Аудио: Russian: 48 kHz, AC3, 2/0 (L,R) ch, ~192.00 kbps avg |Дубляж, Невафильм|
Аудио #2: Russian: 48 kHz, AC3, 3/2 (L,C,R,l,r) + LFE ch, ~384.00 kbps avg |Двухголосый закадровый, Кубик в Кубе| *
Аудио #3: English: 48 kHz, AC3, 3/2 (L,C,R,l,r) + LFE ch, ~384.00 kbps avgCубтитры: Russian (Анастасия Кисиленко), Russian (Amedia[1]), English
Цитата:

* - Только в 1-16 серии.

Список серий

01: Темный лебедь / The Dark Swan
02: Цена / The Price
03: Гибельная осада / Siege Perilous
04: Разрушенное королевство / The Broken Kingdom
05: Ловец снов / Dreamcatcher
06: Медведь и лук / The Bear and the Bow
07: Нимуе / Nimue
08: Рождение / Birth
09: Медвежий король / The Bear King
10: Разбитое сердце / Broken Heart
11: Лебединая песня / Swan Song
12: Души усопших / Souls of the Departed
13: Усилия любви / Labor of Love
14: Сделка с Дьяволом / Devil's Due
15: Братья Джонс / The Brothers Jones
16: Наш крах / Our Decay
17: Её прекрасный герой / Her Handsome Hero
18: Рубиновые башмачки / Ruby Slippers
19: Сёстры / Sisters
20: Феникс / Firebird
21: Последний обряд / Last Rites
22: Только ты / Only You
23: Не рассказанная история / An Untold Story

Media Info

Код:
General
Unique ID                   : 228215017841231866026479909658974091178 (0xABB09D18F2BE508086CA7F9B93D5F7AA)
Complete name               : D:\Uploads\Pirat.Ca\Once Upon A Time - Season 05 (2015)[720p.WEB-DL.2xRus.Eng]\Once.Upon.A.Time.S05E01.720p.WEB-DL.2xRus.Eng.Subs-HDCLUB.mkv
Format                      : Matroska
Format version              : Version 4 / Version 2
File size                   : 1.50 GiB
Duration                    : 43mn 4s
Overall bit rate            : 4 985 Kbps
Movie name                  : Once Upon a Time (2015) - Release for HDCLUB
Encoded date                : UTC 2015-10-17 17:05:44
Writing application         : mkvmerge v6.2.0 ('Promised Land') built on Apr 28 2013 12:22:01
Writing library             : libebml v1.3.0 + libmatroska v1.4.0Video
ID                          : 1
Format                      : AVC
Format/Info                 : Advanced Video Codec
Format profile              : [email protected]/*  */
Format settings, CABAC      : No
Format settings, ReFrames   : 2 frames
Codec ID                    : V_MPEG4/ISO/AVC
Duration                    : 43mn 4s
Bit rate                    : 3 926 Kbps
Width                       : 1 280 pixels
Height                      : 720 pixels
Display aspect ratio        : 16:9
Frame rate mode             : Constant
Frame rate                  : 23.976 fps
Color space                 : YUV
Chroma subsampling          : 4:2:0
Bit depth                   : 8 bits
Scan type                   : Progressive
Bits/(Pixel*Frame)          : 0.178
Stream size                 : 1.18 GiB (79%)
Language                    : English
Default                     : Yes
Forced                      : No
Color primaries             : BT.709
Transfer characteristics    : BT.709
Matrix coefficients         : BT.709
Color range                 : LimitedAudio #1
ID                          : 2
Format                      : AC-3
Format/Info                 : Audio Coding 3
Mode extension              : CM (complete main)
Format settings, Endianness : Big
Codec ID                    : A_AC3
Duration                    : 43mn 4s
Bit rate mode               : Constant
Bit rate                    : 192 Kbps
Channel(s)                  : 2 channels
Channel positions           : Front: L R
Sampling rate               : 48.0 KHz
Bit depth                   : 16 bits
Compression mode            : Lossy
Stream size                 : 59.1 MiB (4%)
Title                       : Невафильм
Language                    : Russian
Default                     : Yes
Forced                      : NoAudio #2
ID                          : 3
Format                      : AC-3
Format/Info                 : Audio Coding 3
Mode extension              : CM (complete main)
Format settings, Endianness : Big
Codec ID                    : A_AC3
Duration                    : 43mn 4s
Bit rate mode               : Constant
Bit rate                    : 384 Kbps
Channel(s)                  : 6 channels
Channel positions           : Front: L C R, Side: L R, LFE
Sampling rate               : 48.0 KHz
Bit depth                   : 16 bits
Compression mode            : Lossy
Stream size                 : 118 MiB (8%)
Title                       : Кубик в Кубе
Language                    : Russian
Default                     : No
Forced                      : NoAudio #3
ID                          : 4
Format                      : AC-3
Format/Info                 : Audio Coding 3
Mode extension              : CM (complete main)
Format settings, Endianness : Big
Codec ID                    : A_AC3
Duration                    : 43mn 4s
Bit rate mode               : Constant
Bit rate                    : 384 Kbps
Channel(s)                  : 6 channels
Channel positions           : Front: L C R, Side: L R, LFE
Sampling rate               : 48.0 KHz
Bit depth                   : 16 bits
Compression mode            : Lossy
Stream size                 : 118 MiB (8%)
Language                    : English
Default                     : No
Forced                      : NoText #1
ID                          : 5
Format                      : UTF-8
Codec ID                    : S_TEXT/UTF8
Codec ID/Info               : UTF-8 Plain Text
Title                       : Анастасия Кисиленко (Medveditsa)
Language                    : Russian
Default                     : No
Forced                      : NoText #2
ID                          : 6
Format                      : UTF-8
Codec ID                    : S_TEXT/UTF8
Codec ID/Info               : UTF-8 Plain Text
Title                       : Amedia
Language                    : Russian
Default                     : No
Forced                      : NoText #3
ID                          : 7
Format                      : UTF-8
Codec ID                    : S_TEXT/UTF8
Codec ID/Info               : UTF-8 Plain Text
Language                    : English
Default                     : No
Forced                      : No

Скриншоты

Яндекс.Метрика
Рейтинг@Mail.ru