[ Сегодня на трекере фрилич! Идет свободное скачивание без начисления Download ]

Парклэнд / Parkland (Питер Ландесман / Peter Landesman) [2013 г., триллер, драма, детектив, BDRip, 1080p] DVO + VO Sub Eng + Original (Eng)

 

Создавать темы 01-Янв-2014 21:31

-Парклэнд / Parkland-- Производство: США, American Film Company, The, Exclusive Media Group, Playtone
Год выпуска: 2013 г.
Жанр: триллер, драма, детектив
Продолжительность: 01:33:39
Мировая премьера: 1 сентября 2013
Российская премьера: 9 января 2014, «Парадиз»
Дата выхода DVD: 18 февраля 2014, «Парадиз / Активижен
Перевод: Любительский (двухголосый, закадровый) [Студия Paradox]
Перевод 2: Любительский (одноголосый, закадровый) [datynet]
Оригинальный аудиопоток: английский
Режиссер: Питер Ландесман / Peter Landesman-В ролях: Зак Эфрон, Марша Гей Харден, Билли Боб Торнтон, Джеки Уивер, Пол Джаматти, Мэтт Барр, Мэллори Мой, Битси Таллоч, Рон Ливингстон, Джейсон Дуглас-Описание: 1963 год. 22 ноября. Даллас. 11:50. Президентский кортеж движется в центр города. 12:30. Раздаются роковые выстрелы. 13:00. Госпиталь Парклэнд. 35-й президент США скончался. Что стало поводом к убийству президента? Вопрос, который вот уже полвека держит в напряжении человечество… Последняя версия одного из самых громких и неразгаданных преступлений XX века, убийство Джона Ф. Кеннеди — любимого страной президента, молодого умного политика, гениального любовника, водившего опасные романы — с Мэрлин Монро, и еще сотнями красивейших женщин Америки. В основе фильма лежит книга «Восстановленная история: Убийство президента Джона Кеннеди» (Reclaiming History: The Assassination of President John F. Kennedy) бывшего юриста Винсента Буглиози.-
Качество видео: BDRip
Контейнер: MKV
Стандарт разрешения: 1080p
Видео кодек: H.264
Аудио кодек: AC3
Видео: AVC, 1920x1080 [email protected] (16:9), 23.976 fps, 11.4 Mbps (0.230 bit/pixel)
Аудио: русский, двухголосый, AC3, 48.0 KHz, 6 ch, 384 Kbps, CBR (Студия Paradox)
Аудио #2: русский, одноголосый, AC3, 48.0 KHz, 2 ch, 192 Kbps, CBR (datynet)
Аудио #3: английский, AC3, 48.0 KHz, 6 ch, 640 Kbps, CBR (оригинал)
Аудио #4: английский, AC3, 48.0 KHz, 2 ch, 192 Kbps, CBR (комментарии)
Cубтитры: Russian, English, English, English

Награды

Венецианский кинофестиваль, 2013 год
Номинации (1):
Золотой лев

Media Info

General
Complete name : E:\КИНО\ИНОСТРАННЫЕ\BDRIP\Parkland.2013.BDRip.1080p.mkv
Format : Matroska
File size : 8.38 GiB
Duration : 1h 33mn
Overall bit rate : 12.8 Mbps
Movie name : Parkland.2013.BluRay.1080p.AC3.x264-CHD
Encoded date : UTC 2013-12-30 01:41:43
Writing application : mkvmerge v2.9.9 ('Tutu') built on Nov 25 2009 21:13:32
Writing library : libebml v0.7.9 + libmatroska v0.8.1
Video
ID : 1
Format : AVC
Format/Info : Advanced Video Codec
Format profile : [email protected]
Format settings, CABAC : Yes
Format settings, ReFrames : 4 frames
Muxing mode : Container [email protected]
Codec ID : V_MPEG4/ISO/AVC
Duration : 1h 33mn
Bit rate : 11.1 Mbps
Nominal bit rate : 11.4 Mbps
Width : 1 920 pixels
Height : 1 080 pixels
Display aspect ratio : 16/9
Frame rate : 23.976 fps
Resolution : 24 bits
Colorimetry : 4:2:0
Scan type : Progressive
Bits/(Pixel*Frame) : 0.224
Stream size : 7.29 GiB (87%)
Title : -=Release for pirat.ca=-
Writing library : x264 core 138 r2356 a1d3d17
Encoding settings : cabac=1 / ref=4 / deblock=1:-3:-3 / analyse=0x3:0x113 / me=umh / subme=10 / psy=1 / psy_rd=1.00:0.05 / mixed_ref=1 / me_range=32 / chroma_me=1 / trellis=2 / 8x8dct=1 / cqm=0 / deadzone=21,11 / fast_pskip=0 / chroma_qp_offset=-2 / threads=18 / lookahead_threads=1 / sliced_threads=0 / nr=0 / decimate=1 / interlaced=0 / bluray_compat=0 / constrained_intra=0 / bframes=5 / b_pyramid=2 / b_adapt=2 / b_bias=0 / direct=3 / weightb=1 / open_gop=0 / weightp=2 / keyint=250 / keyint_min=23 / scenecut=40 / intra_refresh=0 / rc=2pass / mbtree=0 / bitrate=11419 / ratetol=1.0 / qcomp=0.70 / qpmin=0 / qpmax=69 / qpstep=4 / cplxblur=20.0 / qblur=0.5 / ip_ratio=1.40 / pb_ratio=1.30 / aq=2:1.00
Language : English
Audio #1
ID : 2
Format : AC-3
Format/Info : Audio Coding 3
Codec ID : A_AC3
Duration : 1h 33mn
Bit rate mode : Constant
Bit rate : 384 Kbps
Channel(s) : 6 channels
Channel positions : Front: L C R, Surround: L R, LFE
Sampling rate : 48.0 KHz
Stream size : 257 MiB (3%)
Title : AC3.384Kbps (6ch) Russian (DVO Студия Paradox)
Language : Russian
Audio #2
ID : 3
Format : AC-3
Format/Info : Audio Coding 3
Codec ID : A_AC3
Duration : 1h 33mn
Bit rate mode : Constant
Bit rate : 192 Kbps
Channel(s) : 2 channels
Channel positions : L R
Sampling rate : 48.0 KHz
Stream size : 129 MiB (1%)
Title : AC3.192.Kbps (2ch) Russian (VO datynet)
Language : Russian
Audio #3
ID : 4
Format : AC-3
Format/Info : Audio Coding 3
Codec ID : A_AC3
Duration : 1h 33mn
Bit rate mode : Constant
Bit rate : 640 Kbps
Channel(s) : 6 channels
Channel positions : Front: L C R, Surround: L R, LFE
Sampling rate : 48.0 KHz
Stream size : 429 MiB (5%)
Title : AC3.640.Kbps (6ch) English
Language : English
Audio #4
ID : 5
Format : AC-3
Format/Info : Audio Coding 3
Codec ID : A_AC3
Duration : 1h 33mn
Bit rate mode : Constant
Bit rate : 192 Kbps
Channel(s) : 2 channels
Channel positions : L R
Sampling rate : 48.0 KHz
Stream size : 129 MiB (1%)
Title : AC3.192.Kbps (2ch) English (Commentary)
Language : English
Text #1
ID : 6
Format : UTF-8
Codec ID : S_TEXT/UTF8
Codec ID/Info : UTF-8 Plain Text
Title : Russian (Full)
Language : Russian
Text #2
ID : 7
Format : UTF-8
Codec ID : S_TEXT/UTF8
Codec ID/Info : UTF-8 Plain Text
Title : English (Full)
Language : English
Text #3
ID : 8
Format : UTF-8
Codec ID : S_TEXT/UTF8
Codec ID/Info : UTF-8 Plain Text
Title : English (SDH)
Language : English
Text #4
ID : 9
Format : UTF-8
Codec ID : S_TEXT/UTF8
Codec ID/Info : UTF-8 Plain Text
Title : English (SDH-Colored)
Language : English
Menu
00:00:00.000 : en:00:00:00.000
00:06:07.951 : en:00:06:07.951
00:13:19.549 : en:00:13:19.549
00:23:23.611 : en:00:23:23.611
00:30:37.461 : en:00:30:37.461
00:37:15.358 : en:00:37:15.358
00:45:07.955 : en:00:45:07.955
00:54:00.863 : en:00:54:00.863
01:01:36.943 : en:01:01:36.943
01:08:36.821 : en:01:08:36.821
01:14:54.532 : en:01:14:54.532
01:26:26.473 : en:01:26:26.473

Скриншот c названием фильма

Скриншоты

ТРЕЙЛЕР

Создавать темы 01-Янв-2014 21:38 (спустя 7 минут)

Топик был перенесен из форума Зарубежные Новинки (HD*Rip/LQ, DVDRip) в форум Новинки (HD)
[email protected]
Яндекс.Метрика
Рейтинг@Mail.ru