[ Сегодня на трекере фрилич! Идет свободное скачивание без начисления Download ]

Футбол. Чемпионат Европы 2016. 1/2 финала. Германия - Франция (07.07.2016) HDTVRip [H.264/720p-LQ] [hand made 50 fps]

 

Создавать темы 09-Июл-2016 03:40

- Футбол. Чемпионат Европы 2016. 1/2 финала. Германия - Франция (07.07.2016) HDTVRip [H.264/720p-LQ] [hand made 50 fps] - Телекомпания: Матч! Футбол 1 HD
Жанр: Спорт
Язык озвучки: Русский (Сергей Дерябкин (превью), Юрий Розанов, Денис Казанский)
Описание:
07 июля 2016, четверг. 22:00 МСК
1/2 финала
Стадион: Велодром (Марсель, Франция) , 64 078 зрителей (95 % при вместимости 67 394)
Главный судья: Никола Риццоли (Болонья, Италия)
Ассистент: Эленито Ди Либераторе (Италия)
Ассистент: Мауро Тонолини (Италия)
Резервный: Дамир Скомина (Копер, Словения)
Продолжительность: 02:38:47
Качество видео: HDTVRip
Формат видео: MKV
Автор рипа: Striker
Видео: AVC/H.264, 1280x720, ~4100 Kbps, 50 fps
Аудио: AC3, 2 ch, 192 Kbps

Kode:

[code]
Общее
Уникальный идентификатор                 : 295176400028523112403617761985895735168 (0xDE10E82205A748A46B9FAF18007A1F80)
Полное имя                               : M:\СПОРТ\ФУТБОЛ\ЕВРО 2016\Футбол. Чемпионат Европы 2016. 1.2 финала. Германия - Франция HDTVRip 720p.mkv
Формат                                   : Matroska
Версия формата                           : Version 2
Размер файла                             : 4,81 Гбайт
Продолжительность                        : 2 ч. 38 м.
Общий поток                              : 4340 Кбит/сек
Программа кодирования                    : Lavf54.63.104
Библиотека кодирования                   : Lavf54.63.104 / Lavf54.63.104
Видео
Идентификатор                            : 1
Формат                                   : AVC
Формат/Информация                        : Advanced Video Codec
Профиль формата                          : [url=mailto:[email protected]][email protected][/url]
Параметр CABAC формата                   : Да
Параметр ReFrames формата                : 4 кадра
Параметр GOP формата                     : M=2, N=15
Идентификатор кодека                     : V_MPEG4/ISO/AVC
Продолжительность                        : 2 ч. 38 м.
Битрейт                                  : 4062 Кбит/сек
Ширина                                   : 1280 пикселей
Высота                                   : 720 пикселей
Соотношение сторон                       : 16:9
Режим частоты кадров                     : Постоянный
Частота кадров                           : 50,000 кадров/сек
Цветовое пространство                    : YUV
Субдискретизация насыщенности            : 4:2:0
Битовая глубина                          : 8 бит
Тип развёртки                            : Прогрессивная
Бит/(Пиксели*Кадры)                      : 0.088
Размер потока                            : 4,51 Гбайт (94%)
Default                                  : Нет
Forced                                   : Нет
Цветовой диапазон                        : Limited
Основные цвета                           : BT.709
Характеристики трансфера                 : BT.709
Коэффициенты матрицы                     : BT.709
Аудио
Идентификатор                            : 2
Формат                                   : AC-3
Формат/Информация                        : Audio Coding 3
Расширение режима                        : CM (complete main)
Параметр Endianness формата              : Big
Идентификатор кодека                     : A_AC3
Продолжительность                        : 2 ч. 38 м.
Вид битрейта                             : Постоянный
Битрейт                                  : 192 Кбит/сек
Каналы                                   : 2 канала
Расположение каналов                     : Front: L R
Частота                                  : 48,0 КГц
Частота кадров                           : 31,250 кадров/сек (1536 spf)
Метод сжатия                             : С потерями
Размер потока                            : 218 Мбайт (4%)
Язык                                     : Russian
Default                                  : Да
Forced                                   : Нет
[/code]
Скриншоты:
Яндекс.Метрика
Рейтинг@Mail.ru